<?xml version="1.0" standalone="no"?>
<!DOCTYPE svg PUBLIC "-//W3C//DTD SVG 1.1//EN" "http://www.w3.org/Graphics/SVG/1.1/DTD/svg11.dtd" >
<svg>
<metadata>
Created by FontForge 20110222 at Thu Feb 12 17:32:15 2015
 By deploy user
Copyright (c) 2014 by www.moslemebrahimi.com. All rights reserved.
</metadata>
<defs>
<font id="IRAN-sans" horiz-adv-x="0" >
  <font-face 
    font-family="IRAN-sans"
    font-weight="400"
    font-stretch="normal"
    units-per-em="2048"
    panose-1="2 4 5 3 5 2 1 2 2 3"
    ascent="1638"
    descent="-410"
    x-height="1062"
    cap-height="1466"
    bbox="-697 -1315 3911.39 2611"
    underline-thickness="102"
    underline-position="-103"
    unicode-range="U+0020-FEFC"
  />
<missing-glyph horiz-adv-x="1229" 
d="M102 -362v1806h1024v-1806h-1024zM217 -248h795v1577h-795v-1577z" />
    <glyph glyph-name="uni06440627.isol" unicode="&#xfedf;&#xfe8e;" horiz-adv-x="1247" arabic-form="isolated" 
d="M1178 591q4 -58 -6.5 -125t-33 -132t-56 -122.5t-76.5 -96.5q-66 -60 -155 -103t-195 -68q-91 -19 -184.5 -22.5t-185.5 11.5l34 195q63 -12 139 -9.5t153 19.5q-16 89 -47.5 183.5t-72 188.5t-86.5 184.5t-92 171.5t-88 150t-75 119t-53 79t-21 30l163 114
q1 -3 22.5 -34t56.5 -84.5t80 -127t94 -161.5q121 -214 197 -399.5t110 -343.5q41 26 76.5 69.5t60.5 94.5t37 104.5t7 100.5l-103 930l196 19q0 -1 6 -40t15 -106t20.5 -156.5t23 -193t21.5 -216t18 -223.5z" />
    <glyph glyph-name="uni06440627.fina" unicode="&#xfee0;&#xfe8e;" horiz-adv-x="1461" arabic-form="final" 
d="M1327 232q36 -20 66 -26.5t38 -8.5l30 -1h9q20 0 38 -7.5t31.5 -21t21.5 -31.5t8 -38q0 -42 -29 -70t-70 -28h-9h-40q-11 0 -44.5 3.5t-76.5 19.5t-89.5 49.5t-83.5 93.5q-75 -84 -172 -135t-224 -82q-91 -19 -184.5 -22.5t-185.5 11.5l34 195q63 -12 139 -9.5t153 19.5
q-16 89 -47.5 183.5t-72 188.5t-86.5 184.5t-91.5 171.5t-88 150t-75 119t-52 79t-20.5 30l161 114q1 -3 22.5 -34t56.5 -84.5t80 -127t94 -161.5q121 -214 197 -399.5t110 -343.5q39 22 71.5 52t55 66t33 77.5t5.5 86.5q-7 109 -16.5 226t-19 229.5t-19 213.5t-16.5 177.5
t-11.5 122t-4.5 46.5l196 21q0 -1 3.5 -32t8.5 -84t12 -125t14.5 -156t15.5 -176.5t15.5 -187t14 -187t11.5 -176.5q2 -30 6.5 -56t13.5 -48t24 -39.5t39 -31.5z" />
    <glyph glyph-name="uni06440623.isol" unicode="&#xfedf;&#xfe84;" horiz-adv-x="1247" arabic-form="isolated" 
d="M1178 591q4 -58 -6.5 -125t-33 -132t-56 -122.5t-76.5 -96.5q-66 -60 -155 -103t-195 -68q-91 -19 -184.5 -22.5t-185.5 11.5l34 195q63 -12 139 -9.5t153 19.5q-16 89 -47.5 183.5t-72 188.5t-86.5 184.5t-92 171.5t-88 150t-75 119t-53 79t-21 30l163 114
q1 -3 22.5 -34t56.5 -84.5t80 -127t94 -161.5q121 -214 197 -399.5t110 -343.5q41 26 76.5 69.5t60.5 94.5t37 104.5t7 100.5l-103 930l196 19q0 -1 6 -40t15 -106t20.5 -156.5t23 -193t21.5 -216t18 -223.5zM285 1827q-12 3 -27 6q-13 2 -29.5 4.5t-35.5 2.5
q-15 0 -30.5 -2.5t-31.5 -9.5v2q-32 -14 -51.5 -42.5t-19.5 -61.5q0 -17 8 -36l-1 1q14 -35 49.5 -58.5t78.5 -23.5q11 0 21 1t21 6q26 8 51 21t45 25q23 14 43 29l59 -78q-39 -29 -98 -62t-144 -80l-227 -126l-48 87l179 100q-41 17 -72.5 49t-48.5 71q-14 34 -14 74
q0 31 9.5 60.5t27 55t42 45.5t54.5 32q47 19 98 19q23 0 44 -3t38 -7q19 -4 38 -9z" />
    <glyph glyph-name="uni06440623.fina" unicode="&#xfee0;&#xfe84;" horiz-adv-x="1470" arabic-form="final" 
d="M1327 232q36 -20 66 -26.5t38 -8.5l30 -1h9q20 0 38 -7.5t31.5 -21t21.5 -31.5t8 -38q0 -42 -29 -70t-70 -28h-9h-40q-11 0 -44.5 3.5t-76.5 19.5t-89.5 49.5t-83.5 93.5q-75 -84 -172 -135t-224 -82q-91 -19 -184.5 -22.5t-185.5 11.5l34 195q63 -12 139 -9.5t153 19.5
q-16 89 -47.5 183.5t-72 188.5t-86.5 184.5t-91.5 171.5t-88 150t-75 119t-52 79t-20.5 30l161 114q1 -3 22.5 -34t56.5 -84.5t80 -127t94 -161.5q121 -214 197 -399.5t110 -343.5q39 22 71.5 52t55 66t33 77.5t5.5 86.5q-7 109 -16.5 226t-19 229.5t-19 213.5t-16.5 177.5
t-11.5 122t-4.5 46.5l196 21q0 -1 3.5 -32t8.5 -84t12 -125t14.5 -156t15.5 -176.5t15.5 -187t14 -187t11.5 -176.5q2 -30 6.5 -56t13.5 -48t24 -39.5t39 -31.5zM383 1858q-12 3 -27 6q-13 2 -29.5 4.5t-35.5 2.5q-15 0 -30.5 -2.5t-31.5 -9.5v2q-32 -14 -51.5 -42.5
t-19.5 -61.5q0 -17 8 -36l-1 1q14 -35 49.5 -58.5t78.5 -23.5q11 0 21 1t21 6q26 8 51 21t45 25q23 14 43 29l59 -78q-39 -29 -98 -62t-144 -80l-227 -126l-48 87l179 100q-41 17 -72.5 49t-48.5 71q-14 34 -14 74q0 31 9.5 60.5t27 55t42 45.5t54.5 32q47 19 98 19
q23 0 44 -3t38 -7q19 -4 38 -9z" />
    <glyph glyph-name="uni06440625.isol" unicode="&#xfedf;&#xfe88;" horiz-adv-x="1247" arabic-form="isolated" 
d="M1178 591q4 -58 -6.5 -125t-33 -132t-56 -122.5t-76.5 -96.5q-66 -60 -155 -103t-195 -68q-91 -19 -184.5 -22.5t-185.5 11.5l34 195q63 -12 139 -9.5t153 19.5q-16 89 -47.5 183.5t-72 188.5t-86.5 184.5t-92 171.5t-88 150t-75 119t-53 79t-21 30l163 114
q1 -3 22.5 -34t56.5 -84.5t80 -127t94 -161.5q121 -214 197 -399.5t110 -343.5q41 26 76.5 69.5t60.5 94.5t37 104.5t7 100.5l-103 930l196 19q0 -1 6 -40t15 -106t20.5 -156.5t23 -193t21.5 -216t18 -223.5zM786 -284q-12 3 -27 6q-13 2 -29.5 4.5t-35.5 2.5
q-15 0 -30.5 -2.5t-31.5 -9.5v2q-32 -14 -51.5 -42.5t-19.5 -61.5q0 -17 8 -36l-1 1q14 -35 49.5 -58.5t78.5 -23.5q11 0 21 1t21 6q26 8 51 21t45 25q23 14 43 29l59 -78q-39 -29 -98 -62t-144 -80l-227 -126l-48 87l179 100q-41 17 -72.5 49t-48.5 71q-14 34 -14 74
q0 31 9.5 60.5t27 55t42 45.5t54.5 32q47 19 98 19q23 0 44 -3t38 -7q19 -4 38 -9z" />
    <glyph glyph-name="uni06440625.fina" unicode="&#xfee0;&#xfe88;" horiz-adv-x="1470" arabic-form="final" 
d="M1327 232q36 -20 66 -26.5t38 -8.5l30 -1h9q20 0 38 -7.5t31.5 -21t21.5 -31.5t8 -38q0 -42 -29 -70t-70 -28h-9h-40q-11 0 -44.5 3.5t-76.5 19.5t-89.5 49.5t-83.5 93.5q-75 -84 -172 -135t-224 -82q-91 -19 -184.5 -22.5t-185.5 11.5l34 195q63 -12 139 -9.5t153 19.5
q-16 89 -47.5 183.5t-72 188.5t-86.5 184.5t-91.5 171.5t-88 150t-75 119t-52 79t-20.5 30l161 114q1 -3 22.5 -34t56.5 -84.5t80 -127t94 -161.5q121 -214 197 -399.5t110 -343.5q39 22 71.5 52t55 66t33 77.5t5.5 86.5q-7 109 -16.5 226t-19 229.5t-19 213.5t-16.5 177.5
t-11.5 122t-4.5 46.5l196 21q0 -1 3.5 -32t8.5 -84t12 -125t14.5 -156t15.5 -176.5t15.5 -187t14 -187t11.5 -176.5q2 -30 6.5 -56t13.5 -48t24 -39.5t39 -31.5zM938 -242q-12 3 -27 6q-13 2 -29.5 4.5t-35.5 2.5q-15 0 -30.5 -2.5t-31.5 -9.5v2q-32 -14 -51.5 -42.5
t-19.5 -61.5q0 -17 8 -36l-1 1q14 -35 49.5 -58.5t78.5 -23.5q11 0 21 1t21 6q26 8 51 21t45 25q23 14 43 29l59 -78q-39 -29 -98 -62t-144 -80l-227 -126l-48 87l179 100q-41 17 -72.5 49t-48.5 71q-14 34 -14 74q0 31 9.5 60.5t27 55t42 45.5t54.5 32q47 19 98 19
q23 0 44 -3t38 -7q19 -4 38 -9z" />
    <glyph glyph-name="uni06440622.isol" unicode="&#xfedf;&#xfe82;" horiz-adv-x="1350" arabic-form="isolated" 
d="M1280 591q4 -58 -6.5 -125t-33 -132t-56 -122.5t-76.5 -96.5q-66 -60 -155 -103t-195 -68q-91 -19 -184.5 -22.5t-185.5 11.5l34 195q63 -12 139 -9.5t153 19.5q-16 89 -47.5 183.5t-72 188.5t-86.5 184.5t-92 171.5t-88 150t-75 119t-53 79t-21 30l163 114
q1 -3 22.5 -34t56.5 -84.5t80 -127t94 -161.5q121 -214 197 -399.5t110 -343.5q41 26 76.5 69.5t60.5 94.5t37 104.5t7 100.5l-103 930l196 19q0 -1 6 -40t15 -106t20.5 -156.5t23 -193t21.5 -216t18 -223.5zM-3 1453q1 2 5 13.5t10.5 27t14 33t15.5 31.5q32 51 74 81.5
t87 38.5q10 2 22 2.5t21 0.5q44 0 79.5 -11t66.5 -24q27 -11 53.5 -19t57.5 -9q24 -1 47 11t42 28t33 32t20 24l114 -74q-1 -2 -10 -15t-25.5 -31.5t-39.5 -39t-51.5 -37.5t-62.5 -28t-72 -10q-40 1 -75 11t-65 21l-16 6q-32 12 -59 20t-58 3q-18 -2 -34 -17.5t-28.5 -36
t-21 -41t-12.5 -32.5z" />
    <glyph glyph-name="uni06440622.fina" unicode="&#xfee0;&#xfe82;" horiz-adv-x="1470" arabic-form="final" 
d="M1327 232q36 -20 66 -26.5t38 -8.5l30 -1h9q20 0 38 -7.5t31.5 -21t21.5 -31.5t8 -38q0 -42 -29 -70t-70 -28h-9h-40q-11 0 -44.5 3.5t-76.5 19.5t-89.5 49.5t-83.5 93.5q-75 -84 -172 -135t-224 -82q-91 -19 -184.5 -22.5t-185.5 11.5l34 195q63 -12 139 -9.5t153 19.5
q-16 89 -47.5 183.5t-72 188.5t-86.5 184.5t-91.5 171.5t-88 150t-75 119t-52 79t-20.5 30l161 114q1 -3 22.5 -34t56.5 -84.5t80 -127t94 -161.5q121 -214 197 -399.5t110 -343.5q39 22 71.5 52t55 66t33 77.5t5.5 86.5q-7 109 -16.5 226t-19 229.5t-19 213.5t-16.5 177.5
t-11.5 122t-4.5 46.5l196 21q0 -1 3.5 -32t8.5 -84t12 -125t14.5 -156t15.5 -176.5t15.5 -187t14 -187t11.5 -176.5q2 -30 6.5 -56t13.5 -48t24 -39.5t39 -31.5zM12 1464q1 2 5 13.5t10.5 27t14 33t15.5 31.5q32 51 74 81.5t87 38.5q10 2 22 2.5t21 0.5q44 0 79.5 -11
t66.5 -24q27 -11 53.5 -19t57.5 -9q24 -1 47 11t42 28t33 32t20 24l114 -74q-1 -2 -10 -15t-25.5 -31.5t-39.5 -39t-51.5 -37.5t-62.5 -28t-72 -10q-40 1 -75 11t-65 21l-16 6q-32 12 -59 20t-58 3q-18 -2 -34 -17.5t-28.5 -36t-21 -41t-12.5 -32.5z" />
    <glyph glyph-name="uni06440671.isol" unicode="&#xfedf;&#xfb51;" horiz-adv-x="1247" 
d="M1178 591q4 -58 -6.5 -125t-33 -132t-56 -122.5t-76.5 -96.5q-66 -60 -155 -103t-195 -68q-91 -19 -184.5 -22.5t-185.5 11.5l34 195q63 -12 139 -9.5t153 19.5q-16 89 -47.5 183.5t-72 188.5t-86.5 184.5t-92 171.5t-88 150t-75 119t-53 79t-21 30l163 114
q1 -3 22.5 -34t56.5 -84.5t80 -127t94 -161.5q121 -214 197 -399.5t110 -343.5q41 26 76.5 69.5t60.5 94.5t37 104.5t7 100.5l-103 930l196 19q0 -1 6 -40t15 -106t20.5 -156.5t23 -193t21.5 -216t18 -223.5zM287 1626q27 -3 61 -3.5t68.5 3.5t66.5 13.5t53 27.5
q26 23 29 57q0 14 -6.5 25t-11.5 16q-20 21 -42 23.5t-40 -0.5q-27 -5 -53.5 -18.5t-49.5 -36.5q-29 -29 -48 -59.5t-27 -47.5zM31 1589l-18 68q26 13 52 22q22 8 45.5 13t40.5 1t30.5 -10.5t23.5 -14.5q11 -9 19 -19q10 19 33 57t61 75q29 28 64 46.5t71 23.5
q42 9 78.5 -1.5t62.5 -38.5q19 -20 28.5 -43t6.5 -49q-2 -62 -53 -104q-22 -18 -49.5 -29t-57 -17.5t-60 -9t-57.5 -2.5q-29 0 -52 2t-33 3q-25 3 -49 14q-14 6 -26.5 15.5t-26.5 28.5q-16 12 -39 9t-44 -12q-25 -11 -51 -28z" />
    <glyph glyph-name="uni06440671.fina" unicode="&#xfee0;&#xfb51;" horiz-adv-x="1470" 
d="M1327 232q36 -20 66 -26.5t38 -8.5l30 -1h9q20 0 38 -7.5t31.5 -21t21.5 -31.5t8 -38q0 -42 -29 -70t-70 -28h-9h-40q-11 0 -44.5 3.5t-76.5 19.5t-89.5 49.5t-83.5 93.5q-75 -84 -172 -135t-224 -82q-91 -19 -184.5 -22.5t-185.5 11.5l34 195q63 -12 139 -9.5t153 19.5
q-16 89 -47.5 183.5t-72 188.5t-86.5 184.5t-91.5 171.5t-88 150t-75 119t-52 79t-20.5 30l161 114q1 -3 22.5 -34t56.5 -84.5t80 -127t94 -161.5q121 -214 197 -399.5t110 -343.5q39 22 71.5 52t55 66t33 77.5t5.5 86.5q-7 109 -16.5 226t-19 229.5t-19 213.5t-16.5 177.5
t-11.5 122t-4.5 46.5l196 21q0 -1 3.5 -32t8.5 -84t12 -125t14.5 -156t15.5 -176.5t15.5 -187t14 -187t11.5 -176.5q2 -30 6.5 -56t13.5 -48t24 -39.5t39 -31.5zM312 1616q27 -3 61 -3.5t68.5 3.5t66.5 13.5t53 27.5q26 23 29 57q0 14 -6.5 25t-11.5 16q-20 21 -42 23.5
t-40 -0.5q-27 -5 -53.5 -18.5t-49.5 -36.5q-29 -29 -48 -59.5t-27 -47.5zM56 1579l-18 68q26 13 52 22q22 8 45.5 13t40.5 1t30.5 -10.5t23.5 -14.5q11 -9 19 -19q10 19 33 57t61 75q29 28 64 46.5t71 23.5q42 9 78.5 -1.5t62.5 -38.5q19 -20 28.5 -43t6.5 -49
q-2 -62 -53 -104q-22 -18 -49.5 -29t-57 -17.5t-60 -9t-57.5 -2.5q-29 0 -52 2t-33 3q-25 3 -49 14q-14 6 -26.5 15.5t-26.5 28.5q-16 12 -39 9t-44 -12q-25 -11 -51 -28z" />
    <glyph glyph-name="allah" unicode="&#x627;&#xfedf;&#xfee0;&#xfeea;" horiz-adv-x="2633" arabic-form="isolated" 
d="M1247 -3h-41v-3q-32 0 -67 3h-12v1q-9 0 -19 2q-51 7 -84 31q-78 37 -131 121q-62 -9 -116.5 -13.5t-103.5 -4.5q-258 0 -358 125q-28 33 -40 70.5t-13.5 71.5t4 63.5t14.5 49.5l1 5q41 84 103 148.5t129.5 110.5t130.5 75.5t105 45.5q-7 75 -11.5 122.5t-4.5 49.5
l196 17q56 -650 103 -772.5t120 -124.5t117.5 0.5t74.5 26t45.5 57.5t-38.5 894l198 21q62 -860 62 -868q0 -18 5.5 -46t31.5 -57.5t68.5 -31t75 2t57 14.5t35.5 27q18 22 22.5 51t4.5 58q0 10 -75 902l194 44q71 -928 69 -1011t-68 -180.5t-263 -93.5q-49 -7 -102 9
q-20 2 -38 9q-69 28 -109 65q-21 -17 -40 -31q-28 -18 -58 -29.5t-60 -17t-59.5 -7.5t-54.5 -2zM771 696q-36 -16 -79.5 -39.5t-86.5 -55t-80.5 -72.5t-62.5 -91q-2 -7 -3.5 -24t11.5 -32q7 -8 29.5 -21.5t71.5 -21.5q49 -7 112 -7t141 9q-11 58 -24.5 142.5t-28.5 212.5z
M1323 1260q-53 0 -87 39q-19 26 -28 63.5t-7 90.5q1 35 5.5 60t5.5 27l78 -17q-2 -10 -3 -22q-2 -11 -2.5 -24.5t-1.5 -27.5q-2 -35 3 -60t14 -38q3 -3 7.5 -6t15.5 -3q13 0 25 8t21.5 20.5t17.5 28t13 30.5q7 20 11 39t7 34q3 18 5 34l83 -3q0 -15 2 -33q2 -15 5.5 -33.5
t9.5 -38.5q4 -14 9 -28.5t12.5 -26.5t17.5 -20t22 -8q17 0 27 7q5 7 12.5 25.5t7.5 61.5q0 22 -6 47t-15 47.5t-18 41t-15 28.5l70 40q1 -2 11.5 -20.5t22.5 -47.5t22 -65t10 -71q0 -98 -46 -144q-12 -12 -24.5 -18.5t-24 -9.5t-20.5 -3.5t-14 -0.5q-57 0 -99 51
q-8 10 -15 21.5t-12 25.5q-15 -31 -32 -50.5t-34.5 -31t-35 -15.5t-33.5 -4zM1467 1635l-72 22q20 71 19 146t-19 141l73 23q16 -60 18.5 -143t-19.5 -189zM2424 -13l-197 11q15 227 18.5 429.5t-0.5 374t-12.5 308.5t-17.5 233t-15.5 148.5t-6.5 53.5l196 30
q2 -6 15 -120.5t22 -266.5t13.5 -275.5t4.5 -268t-3.5 -310.5t-16.5 -347z" />
    <glyph glyph-name="riyal" unicode="&#x631;&#xfef3;&#xfe8e;&#x644;" horiz-adv-x="2976" arabic-form="isolated" 
d="M1811 -87q6 0 17.5 -10.5t23.5 -24t22.5 -26.5t14.5 -17q22 -21 43.5 -42.5l43.5 -43.5q-20 -20 -38.5 -39t-38.5 -38q-5 -5 -16.5 -19t-25 -29t-26 -26.5t-19.5 -11.5q-6 0 -17 10.5t-23 24t-22.5 26t-14.5 17.5q-22 22 -43.5 43t-43.5 43l39 39t39 38q5 5 16.5 19
t24.5 29t25 26.5t19 11.5zM1304 533q3 -78 5.5 -156t4.5 -156q1 -61 4 -123t1 -124t-10.5 -123t-29.5 -120q-33 -93 -95.5 -166.5t-144 -125t-176 -80t-192 -31.5t-191.5 22t-174 80q-59 41 -104 93.5t-75.5 113.5t-46 129t-15.5 139q0 70 7.5 143t25.5 144.5t47.5 138
t73.5 123.5q38 -32 75 -63t74 -63q-35 -47 -57 -104.5t-34 -119t-14.5 -124t2.5 -118.5q6 -63 32 -118.5t68 -98.5t96 -72t116 -41q57 -11 118.5 -5t120.5 26.5t111.5 53t90.5 76.5q43 49 64.5 103t30 111.5t8 117.5t-1.5 121q-5 289 -17.5 574.5t-24.5 574.5
q-2 57 -4.5 114.5t-5.5 114.5q23 1 46.5 2t46.5 2q6 0 21.5 2t32.5 3.5t31.5 2t18.5 -3.5q2 -2 2.5 -7.5t0.5 -12t-0.5 -12.5t-0.5 -8q2 -29 3 -56.5t2 -55.5q5 -117 10 -232t10 -231q5 -94 7.5 -187t5.5 -187zM2485 506q9 -54 10 -109t-10 -107t-35 -99.5t-66 -87.5
q-41 -39 -88 -62t-98.5 -35t-105.5 -15.5t-107 -3.5q-29 0 -68.5 -2t-76.5 3q-66 4 -127.5 22.5t-110.5 53.5t-82 87.5t-42 125.5q-6 50 -4 99t2 100q1 78 1.5 154t-0.5 154t-1 156t-2.5 156t-7.5 156t-15 155q-1 5 -3.5 15.5t-4 21t-1 18.5t6.5 9q16 3 31 6l30 6
q32 5 63.5 11t63.5 12q22 -118 30.5 -239t10 -243t-0.5 -243.5t-2 -241.5q0 -28 -2.5 -61.5t-4 -68t1 -68.5t13 -62.5t31 -50t55.5 -31.5q26 -8 54 -8t56 -4q22 1 43 0t39 -1q33 0 70.5 1t74 6t70 16t60 31t43 50.5t19.5 74.5q3 58 -7.5 118.5t-29.5 119.5t-44 115.5
t-50 108.5q3 6 14.5 12t25 12t26 10.5t18.5 7.5q24 12 48 23.5t47 23.5q0 -13 7 -30.5t16.5 -35.5t18.5 -34.5t14 -28.5q26 -68 48 -137.5t35 -141.5zM2784 711q22 -72 47.5 -150t45 -158t29 -160.5t0.5 -157.5q-10 -87 -42.5 -165.5t-81.5 -149.5t-112 -133.5t-133 -116.5
t-145 -99t-147 -81q-11 23 -22.5 47t-23.5 47q-7 14 -14 28.5t-14 28.5q-4 9 -7 13.5t-3.5 8t3.5 6.5t13 8q61 31 121.5 68t116 79.5t105 91.5t90.5 106q66 91 86.5 183.5t3.5 197.5q-17 101 -45.5 201t-61.5 197q48 15 95.5 30t95.5 30zM2240 -330q-5 -5 -16.5 -19
t-24.5 -29t-25.5 -26.5t-19.5 -11.5q-6 0 -17.5 10.5t-23.5 24t-22.5 26t-14.5 17.5l-86 86l39 39t39 38q5 5 16.5 19t24.5 29t25 26.5t19 11.5q6 0 17.5 -10.5t23.5 -24t22.5 -26.5t14.5 -17q44 -42 86 -86q-20 -20 -38.5 -39t-38.5 -38z" />
    <glyph glyph-name="uni0621" unicode="&#x621;" horiz-adv-x="1019" arabic-form="isolated" 
d="M750 517q-17 8 -36 15q-17 6 -39.5 12t-48.5 11q-43 6 -88 -1q-48 -12 -80.5 -47.5t-40.5 -80.5q-3 -22 4 -53l-1 3q6 -26 21 -49.5t36 -42.5t47 -32t55 -17q15 -2 30 -3t30 4q38 6 75.5 18.5t67.5 24.5q34 14 66 31l64 -120q-59 -32 -148 -65.5t-216 -80.5l-341 -126
l-48 130l268 101q-52 32 -89.5 83t-51.5 109q-13 50 -4 105q6 43 25.5 82t49 70.5t68 54t82.5 32.5q71 17 140 6q31 -5 60 -14t52 -17q26 -10 50 -21z" />
    <glyph glyph-name="uni0627" unicode="&#x627;" horiz-adv-x="536" arabic-form="isolated" 
d="M434 -10l-197 11q15 227 18.5 429.5t-0.5 374t-12.5 308.5t-17.5 233t-15.5 148.5t-6.5 53.5l196 30q2 -6 15 -120.5t22 -266.5t13.5 -275.5t4.5 -268t-3.5 -310.5t-16.5 -347z" />
    <glyph glyph-name="uni0627.fina" unicode="&#x627;" horiz-adv-x="624" arabic-form="final" 
d="M626 0q-110 0 -188.5 26t-132.5 80q-33 33 -50.5 71t-26 75t-9.5 70.5t-1 57.5v19q0 1 1 36.5t1.5 96t0.5 139.5t-1 167q0 86 -2 179t-6 180t-11 160.5t-16 120.5l196 36q9 -51 16 -125t11.5 -161t6.5 -181.5t2 -184.5q1 -88 1 -169v-144t-0.5 -104t-0.5 -49v-18
q-1 -44 3 -77.5t27 -55.5q45 -47 170 -48h9q20 0 38 -8t31.5 -21.5t21.5 -31.5t8 -38q0 -42 -29 -70t-70 -28z" />
    <glyph glyph-name="uni062D" unicode="&#x62d;" horiz-adv-x="1754" arabic-form="isolated" 
d="M902 -718q-113 -9 -217.5 7.5t-195.5 56t-164.5 101t-123.5 142.5t-73 180.5t-12 214.5q10 102 48 192.5t107 171.5q60 69 134 125t164 98q123 57 255 89.5t256 47.5q-28 14 -54.5 26.5t-54.5 26.5q-106 52 -191 90.5t-145 46.5q-139 19 -250 -99q-23 -24 -38.5 -47
t-27.5 -43q-7 -11 -12.5 -21.5t-10.5 -20.5l-182 76q3 4 11 22t23 44t38 58.5t55 65.5q88 97 195 137t226 24q84 -11 180 -53.5t218 -101.5q109 -55 231.5 -112t267.5 -105l-36 -192q-2 0 -43 1t-108.5 -0.5t-155 -8t-183.5 -21.5t-194 -41t-186 -67q-24 -11 -56.5 -29.5
t-68.5 -45t-72 -61.5t-66 -78.5t-51 -96.5t-26 -115q-8 -86 13 -157.5t64 -128t105 -97.5t136.5 -65.5t158.5 -32t171 2.5q50 4 103.5 16t107.5 32.5t107 49.5t102 67l115 -161q-75 -54 -145.5 -91t-142 -61.5t-147 -38t-159.5 -20.5z" />
    <glyph glyph-name="uni062D.init" unicode="&#x62d;" horiz-adv-x="1548" arabic-form="initial" 
d="M-101 98q0 42 29 70t71 28h198q134 0 266.5 25.5t261.5 67.5t252 96t237 111q-68 24 -131.5 52t-124.5 57q-47 22 -91.5 42.5t-85.5 36.5t-78.5 25.5t-68.5 9.5q-42 0 -78.5 -18t-68 -45.5t-56.5 -59t-42.5 -59t-27 -46t-10.5 -19.5l-180 81q1 2 8.5 17.5t21.5 40t35 55
t48 62.5q77 94 165.5 141t184.5 47q48 0 98 -11t101 -29.5t103.5 -42.5t106.5 -49q59 -28 119.5 -55t121.5 -48.5t122 -34.5t123 -13l38 -190q-70 -29 -139.5 -62.5t-143.5 -70.5q-110 -55 -236.5 -110t-265 -99.5t-286.5 -72.5t-299 -28h-190h-8q-21 0 -39 7.5t-31.5 21
t-21.5 31.5t-8 38z" />
    <glyph glyph-name="uni062D.medi" unicode="&#x62d;" horiz-adv-x="1667" arabic-form="medial" 
d="M-99 97q0 20 7.5 38t21 31.5t31.5 21.5t39 8h183q134 0 257.5 25.5t239.5 66.5t226 93.5t218 105.5l18 9q-68 24 -131.5 53t-124.5 57q-46 22 -90.5 42t-86 35.5t-79 25t-69.5 9.5q-42 0 -79 -18t-68 -45t-56 -58.5t-42 -59t-26.5 -46l-9.5 -18.5l-181 82q0 1 7.5 16
t22 40t35 56t47.5 63q78 91 166.5 139t183.5 48q48 0 98 -11t101 -29.5t103.5 -42t106.5 -48.5q59 -29 119.5 -56t121.5 -49t122.5 -35t122.5 -13l39 -189q-45 -19 -90.5 -40.5t-91.5 -43.5q11 -38 35.5 -64.5t56.5 -45t67.5 -29t69.5 -16.5t63.5 -7.5t47.5 -1.5h6h8
q21 0 39 -8t31.5 -21.5t21 -31.5t7.5 -38q0 -42 -28.5 -69.5t-70.5 -27.5h-14q-99 0 -183 18.5t-150 53.5t-113.5 85.5t-72.5 114.5q-102 -51 -212 -100t-228 -87.5t-245.5 -62t-265.5 -23.5l-183 1q-42 0 -70.5 27.5t-28.5 69.5z" />
    <glyph glyph-name="uni062D.fina" unicode="&#x62d;" horiz-adv-x="1702" arabic-form="final" 
d="M912 -791q-142 0 -270 40.5t-228.5 113.5t-167 173t-86.5 218.5t13.5 252t132.5 271.5q120 140 300 224q123 57 254 89t257 47l-108 52q-105 53 -192 91.5t-145 46.5q-139 19 -251 -99q-33 -36 -53.5 -69t-29.5 -51l-5 -12l-184 76q2 4 10.5 22t24.5 44.5t39 58.5t54 65
q88 97 194.5 137t226.5 24q84 -11 180.5 -53.5t217.5 -102.5q109 -54 232 -111t268 -105l-38 -192q-2 0 -18.5 0.5t-46 1t-70 -0.5t-89.5 -4q-2 -11 -2.5 -30.5t2.5 -42.5t12 -48t27 -47q24 -29 54.5 -47t70 -28.5t89.5 -14t113 -3.5q20 0 38 -8t31.5 -21.5t21.5 -31.5
t8 -39q0 -41 -29 -68.5t-70 -27.5q-92 0 -166.5 10.5t-133.5 31.5t-104.5 52.5t-79.5 74.5q-36 48 -57 106.5t-24 125.5q-3 21 0 38q-112 -14 -227 -41t-220 -75q-24 -12 -56.5 -30.5t-68.5 -45t-71.5 -61t-65.5 -78t-50.5 -96t-25.5 -115.5q-6 -96 22 -175t81.5 -139
t127.5 -101.5t159 -63t177 -23t181.5 18t171.5 60t148 103.5l129 -152q-71 -63 -149 -104.5t-159.5 -66t-164 -35t-162.5 -10.5z" />
    <glyph glyph-name="uni062F" unicode="&#x62f;" horiz-adv-x="1127" arabic-form="isolated" 
d="M545 1q-48 0 -113.5 12t-130.5 30.5t-119 41.5t-79 46l82 188q37 -24 89 -46.5t111 -39t121.5 -24.5t120.5 -3t108 25t84 61q27 31 7 116q-11 49 -35.5 102.5t-59 107t-76.5 104.5t-87.5 94.5t-92.5 78t-92 53.5l81 182q59 -27 119 -70t116.5 -97t108 -116.5t93.5 -129
t73 -133.5t46 -131q12 -56 12 -101t-8.5 -80t-22.5 -61t-30 -45q-92 -111 -257 -147q-38 -10 -80 -14t-89 -4z" />
    <glyph glyph-name="uni0631" unicode="&#x631;" horiz-adv-x="717" arabic-form="isolated" 
d="M494 650q28 -93 53 -184q10 -39 21 -81t20.5 -84t16.5 -81.5t11 -73.5q1 -11 2 -25t1 -31q0 -87 -25.5 -169t-71 -157.5t-108 -144.5t-136 -129.5t-155 -112.5t-165.5 -93l-87 176q105 52 204 120.5t176.5 149.5t124.5 172t47 188q0 5 -1 16.5t-2 22.5v-1q-3 31 -10 67.5
t-16 75t-19 77t-20 74.5q-24 84 -51 168z" />
    <glyph glyph-name="uni0631.fina" unicode="&#x631;" horiz-adv-x="816" arabic-form="final" 
d="M625 73v-4q0 -87 -25.5 -169t-71 -158t-108 -144.5t-136 -129.5t-155 -112.5t-165.5 -93.5l-86 177q72 37 143 81t134 95t116 108t89.5 119t54.5 129t11 137v-2q-7 57 -21.5 122.5t-32 128.5t-34 118.5t-28.5 92.5l188 58q38 -116 74.5 -197.5t75 -133t80.5 -75.5t92 -24
h5q21 0 39 -8t31.5 -21.5t21 -31.5t7.5 -38q0 -42 -28.5 -69.5t-70.5 -27.5h-1q-14 0 -36.5 1t-50 8t-56.5 22t-56 42z" />
    <glyph glyph-name="uni0633" unicode="&#x633;" horiz-adv-x="2654" arabic-form="isolated" 
d="M2428 924q5 -10 18.5 -36t31 -64t36 -86t34 -101t25.5 -110t10 -112q-1 -86 -20.5 -161t-60 -131t-104.5 -88t-155 -32q-28 0 -60 8.5t-64 25t-61 41.5t-50 57q-60 -71 -135 -100t-159 -33q-48 -2 -85 7t-63 21q-31 14 -53 33q3 -87 -9.5 -170.5t-43.5 -159t-82.5 -140.5
t-127.5 -115q-92 -63 -208.5 -96t-261.5 -40q-10 0 -20 -0.5t-19 -0.5q-132 0 -240.5 37.5t-193.5 112.5q-76 67 -125.5 161t-65.5 205q-10 61 -9 122.5t8 118.5t19 107.5t24 90.5q31 102 66.5 174.5t61.5 107.5l159 -117q-20 -26 -47.5 -87t-51 -141t-35 -171t0.5 -177
q4 -26 13.5 -62t29 -74t50 -75.5t76.5 -67t109.5 -48t147.5 -18.5h33q213 9 342.5 84t174.5 214q26 82 28.5 165t-10 162t-36 150.5t-48.5 129.5q-24 54 -41.5 83t-17.5 31l167 108q6 -16 16 -38q8 -19 19.5 -45.5t27.5 -61.5q27 -63 56.5 -121.5t66 -103.5t82.5 -71
t107 -24q52 1 84.5 21t52 53t27 77t10 93.5t1 102t-0.5 102.5l203 20l2 -30q1 -13 1 -28t1 -28q1 -25 3.5 -63.5t8.5 -82t17 -87.5t28.5 -79.5t43.5 -57.5t63 -22q34 0 60.5 19.5t44.5 52.5t26 75.5t6 88.5q-3 64 -18.5 122.5t-35.5 110.5t-42 95t-38 75z" />
    <glyph glyph-name="uni0633.init" unicode="&#x633;" horiz-adv-x="1609" arabic-form="initial" 
d="M-92 97q0 19 7 36.5t19.5 31t29.5 21.5t36 10q59 0 106.5 23t84.5 61.5t64 88.5t47.5 104.5t34.5 110t23 104.5l198 -42q-8 -24 -19.5 -62t-22.5 -81.5t-19 -89t-8 -84.5q0 -27 5 -52.5t17 -45.5t33 -32t53 -12q51 0 91.5 28t72 73t54.5 102t39.5 116t27.5 114.5t17 96.5
l192 -35l-5.5 -32.5t-13 -79t-13.5 -99t-6 -93.5q0 -37 5.5 -70.5t18 -59t33 -42t50.5 -19.5q46 -6 76.5 1t48.5 18.5t26.5 24.5t11.5 19h-1q14 22 19.5 50t5.5 60q0 57 -15.5 123t-37 129.5t-45 118t-39.5 86.5l175 92q5 -10 19 -38.5t32 -70t37.5 -93.5t35.5 -109.5
t26.5 -117.5t10.5 -117q0 -86 -24 -155.5t-72 -118.5t-120.5 -75.5t-169.5 -25.5q-39 0 -77 12t-73 32.5t-65 48t-51 59.5q-60 -70 -136 -111t-161 -41q-37 0 -76.5 9.5t-75.5 28.5t-65.5 47t-45.5 65q-60 -63 -136 -100t-182 -39h-16q-19 1 -36 9t-29.5 21t-19.5 30.5
t-7 37.5z" />
    <glyph glyph-name="uni0633.medi" unicode="&#x633;" horiz-adv-x="1851" arabic-form="medial" 
d="M-108 98q0 19 8.5 36.5t22 31t31.5 21.5t37 9h10q42 0 80 22.5t71 57.5t60.5 78t49.5 84q21 40 37.5 79.5t29.5 74t21.5 62t13.5 43.5q5 23 5 24l192 -53q-1 -1 -2.5 -7t-4.5 -17q-6 -23 -15 -67t-17 -98q-11 -87 -5 -152.5t27 -99.5q14 -26 44 -29q12 -3 22 -3
q38 0 73 25q45 34 88 107t77 179q17 49 28 93t17 75q5 25 8 39.5t3 16.5l195 -37q-2 -1 -4 -15.5t-7 -40.5t-9 -63.5t-5 -79.5q-5 -91 8 -158t41 -101q11 -14 29.5 -25t55.5 -11q52 0 84 36q34 37 54.5 109t26.5 170q2 45 2 83.5t-2 66.5q-3 25 -3.5 40.5t-0.5 16.5l196 16
q2 -5 4 -56q3 -21 6.5 -48t9.5 -58.5t14 -66t19 -68.5q79 -244 221 -244h12h8q42 0 70 -28t28 -70q0 -41 -28 -69.5t-70 -28.5h-8h-12q-81 0 -151.5 33.5t-126.5 98.5q-28 31 -55 75q-28 -62 -66 -103q-45 -51 -104 -77.5t-128 -26.5q-74 0 -135 28.5t-104 82.5
q-14 18 -26 38t-22 43q-56 -82 -122 -132q-89 -63 -189 -63q-14 0 -27 1.5t-27 3.5q-118 22 -181 120q-10 17 -18 35.5t-16 38.5q-33 -43 -67 -75q-124 -121 -273 -121h-10q-20 0 -38 7.5t-31.5 21t-21.5 31.5t-8 38z" />
    <glyph glyph-name="uni0633.fina" unicode="&#x633;" horiz-adv-x="2889" arabic-form="final" 
d="M2891 197q20 0 38 -8t31.5 -21.5t21.5 -31.5t8 -39q0 -20 -8 -38t-21.5 -31.5t-31.5 -21t-38 -7.5h-9h-11q-81 0 -151.5 34t-126.5 99q-15 16 -28.5 35t-26.5 41q-14 -32 -30.5 -57.5t-35.5 -47.5q-45 -50 -103 -77t-128 -27q-28 0 -59.5 9t-63 26t-60 41.5t-49.5 56.5
q-60 -70 -135.5 -99t-160.5 -34q-47 -2 -83.5 7.5t-62.5 21.5q-30 14 -52 32q3 -87 -9.5 -170.5t-43.5 -159t-83 -140.5t-128 -116q-181 -123 -470 -135q-10 0 -20 -1t-19 -1q-264 0 -434 150q-76 68 -125.5 162t-65.5 205q-10 61 -9 122.5t8 118.5t19 107t24 90
q31 103 66.5 175.5t61.5 107.5l159 -118q-13 -18 -30 -51.5t-34.5 -78t-33.5 -98.5t-26.5 -112t-13.5 -118t5 -117q4 -26 13.5 -62t29 -74.5t50 -76t76.5 -67t109.5 -48t147.5 -18.5h34q212 10 341.5 85t174.5 213q26 82 32.5 170t-1 172t-26.5 159.5t-44 134.5
q-12 27 -19 43.5t-10.5 25.5t-5 12.5l-1.5 3.5l166 108q4 -11 9 -26q5 -13 12 -31t16 -40q24 -63 46.5 -128.5t53.5 -119t75.5 -87t113.5 -33.5q51 0 86.5 19.5t58 52.5t35 77.5t18.5 94.5t8 103.5t4 103.5l203 -15q0 -15 -1 -30q-1 -13 -1.5 -28t-1.5 -28q-1 -25 -2 -61
t1 -75t9 -78.5t22 -70.5t39 -50.5t61 -19.5q28 0 45 11t34 31q34 37 54.5 109t26.5 171q2 45 1.5 83.5t-1.5 65.5q-3 26 -3.5 41t-0.5 17l196 14q1 0 2 -15.5t2 -40.5q5 -40 16 -105t33 -136q79 -242 221 -242h20z" />
    <glyph glyph-name="uni0635" unicode="&#x635;" horiz-adv-x="2867" arabic-form="isolated" 
d="M836 -649q-24 0 -49.5 1t-51.5 5q-98 7 -179.5 31t-147.5 64q-63 37 -108.5 87.5t-78.5 113.5q-58 123 -57 280q0 63 10 128.5t28 137.5q15 60 34 114t38 97.5t34.5 74t24.5 43.5l166 -106q-8 -11 -26.5 -49t-39 -94.5t-39.5 -126t-27.5 -141.5t-2.5 -142.5t35 -128.5
q79 -164 353 -187q280 -24 430 105q43 36 71.5 78.5t46.5 87.5t26 89t11 82q6 85 -8 176t-35 171.5t-42.5 143t-31.5 89.5q-4 4 -5 8.5t-4 9.5l184 77l8 -23q32 -75 72 -142t75 -122q13 -20 31.5 -39.5t42.5 -39.5q18 33 42 73t55 83t67.5 87t80.5 86q89 85 194 140t214 75
q128 22 236.5 -9t188.5 -115q60 -60 87 -130.5t22 -146.5q-8 -114 -62.5 -204.5t-151.5 -153.5q-54 -35 -114 -58t-119 -36.5t-115 -20t-104 -7.5q-114 -5 -225.5 11.5t-200.5 48.5q-51 20 -97 44t-87 53q3 -74 0 -144q-10 -139 -63 -255q-29 -66 -69.5 -120.5t-91.5 -98.5
q-184 -155 -475 -155zM1798 209q43 -15 98 -26t116 -16t125 -3t126.5 12t120 29.5t104.5 49.5q115 72 127 205q1 21 -4 40.5t-13.5 36t-18.5 29.5t-18 21q-29 28 -61.5 44t-65.5 23t-64.5 6t-57.5 -7q-81 -14 -159.5 -56t-146.5 -106q-38 -36 -69.5 -74t-57.5 -75t-46 -71
t-35 -62z" />
    <glyph glyph-name="uni0635.init" unicode="&#x635;" horiz-adv-x="1871" arabic-form="initial" 
d="M777 188q53 -6 117.5 -8.5t133 -0.5t139 9.5t136 23t122.5 40t100 59.5q81 66 90 171q0 21 -5.5 40.5t-13.5 36t-18 29.5t-18 21q-29 30 -61 46t-64.5 22t-64.5 4.5t-59 -5.5q-79 -16 -157.5 -57.5t-146.5 -106.5q-46 -44 -83 -90.5t-65.5 -90t-48.5 -81t-33 -62.5z
M-99 98q0 42 29 70t70 28q60 0 102.5 9.5t71.5 23.5t47 30.5t29 31.5q35 47 52 112.5t33 141.5q8 43 17 83t22 79l189 -57q-8 -20 -12.5 -40.5t-9.5 -41.5h1q-4 -20 -8.5 -58t-2 -82t15 -90t41.5 -83q13 29 36.5 74t58.5 99t81.5 112.5t105.5 114.5q44 42 93 77.5t101.5 63
t106 46t106.5 27.5q128 25 236.5 -7t189.5 -116q59 -60 86.5 -130.5t22.5 -146.5q-12 -191 -161 -311q-68 -55 -152 -90t-173.5 -54.5t-179.5 -26.5t-170 -7q-93 0 -161.5 5.5t-97.5 10.5q-81 8 -150 38q-21 10 -40.5 21.5t-39 27.5t-40 37.5t-42.5 50.5q-63 -88 -161 -129
t-235 -42h-9q-41 0 -70 28t-29 70z" />
    <glyph glyph-name="uni0635.medi" unicode="&#x635;" horiz-adv-x="1933" arabic-form="medial" 
d="M-99 97q0 42 28.5 70.5t69.5 28.5h9q119 3 161 24q45 23 81 70q35 45 56 111.5t41 154.5q8 38 16.5 76t19.5 75l189 -58q-8 -18 -12.5 -38.5t-9.5 -43.5h1q-4 -20 -7.5 -57.5t-1.5 -80.5t13.5 -86.5t37.5 -76.5l6 -11q13 29 37 74t59 99t81.5 113t103.5 115
q89 85 193.5 139.5t213.5 74.5q128 22 237 -9t189 -116q59 -59 86.5 -130t22.5 -146q-12 -163 -120 -273h231q42 0 71 -28.5t29 -70.5t-29 -69.5t-71 -27.5l-252 -1q-110 0 -176.5 6.5t-106.5 24.5q-105 -29 -211.5 -39t-200.5 -10q-90 0 -156.5 6t-100.5 9q-42 5 -80.5 14
t-70.5 24q-44 19 -78.5 47t-63.5 64q-14 11 -24 30q-64 -85 -161 -128q-99 -47 -252 -47q-41 0 -69.5 27.5t-28.5 69.5zM787 188q53 -6 117.5 -8.5t133.5 0t139 10.5t135.5 23.5t123 40t100.5 59.5q84 67 90 169q1 22 -4 41.5t-13 35.5t-18 28.5t-18 20.5q-29 30 -62 46
t-66 22t-64.5 4.5t-57.5 -5.5q-80 -13 -158.5 -54.5t-147.5 -107.5q-46 -43 -83 -90t-65.5 -90.5t-48.5 -81.5t-33 -63z" />
    <glyph glyph-name="uni0635.fina" unicode="&#x635;" horiz-adv-x="2868" arabic-form="final" 
d="M1762 208q44 -15 99 -26t116 -16.5t125.5 -3.5t126.5 12t119.5 29.5t104.5 50.5q116 74 125 205q1 22 -4 41t-13 35t-18 28.5t-18 21.5q-28 29 -60.5 45t-66 22t-65.5 5t-57 -5q-81 -14 -159.5 -57t-146.5 -107q-38 -36 -69.5 -74t-57 -74.5t-46 -70.5t-35.5 -61zM2868 0
q-48 0 -93 8.5t-83.5 22t-68 30t-45.5 31.5l-4 4l-13 -8q-54 -35 -114 -58t-119 -36.5t-115 -20t-104 -7.5q-115 -5 -226 11.5t-200 49.5q-51 18 -97.5 42t-88.5 55q3 -37 4 -72t-2 -72q-5 -71 -20.5 -134t-41.5 -121q-29 -66 -70 -120.5t-92 -99.5q-184 -155 -474 -155
q-24 0 -49 1t-51 3q-99 10 -180.5 32.5t-147.5 64.5q-127 74 -188 201q-30 61 -44 131t-13 149q1 63 10.5 128.5t27.5 137.5q15 60 34 114.5t37.5 98.5t34.5 74.5t24 44.5l167 -108q-7 -12 -25.5 -50.5t-39 -94.5t-40 -125t-28 -141t-2.5 -142.5t35 -129.5
q42 -85 128.5 -130t225.5 -58q140 -11 246.5 14.5t183.5 89.5q43 37 71.5 80t46 88t25.5 89t11 82q4 56 -1 116t-15.5 119t-25.5 114t-29.5 101t-27 80t-18.5 51q-4 5 -5 10t-2 7l182 75q38 -90 78.5 -160.5t77.5 -124.5q13 -20 31 -40.5t42 -38.5q18 33 42 73t55 82.5
t68 87t82 86.5q88 86 193.5 141t212.5 75q128 22 236.5 -9t188.5 -116q60 -60 87 -131t22 -146q-4 -58 -20.5 -109.5t-44.5 -99.5q5 -7 20.5 -14t36.5 -13t45.5 -10t47.5 -4h8q42 0 70.5 -28.5t28.5 -70.5q0 -41 -28.5 -69t-70.5 -28z" />
    <glyph glyph-name="uni0637" unicode="&#x637;" horiz-adv-x="1776" arabic-form="isolated" 
d="M856 0q-33 0 -64.5 1t-61.5 3h-5q-156 8 -311.5 42t-322.5 98l72 185q133 -52 258 -83q21 31 53.5 75t78.5 103q12 86 18 154t7 134.5t-3 141t-11 173.5q-8 108 -17 200.5t-17 160t-13.5 106t-5.5 39.5l196 36l3 -26t8 -68t11 -96t11.5 -110t11 -110t8.5 -97
q4 -56 6.5 -89.5t4 -56.5t2.5 -41.5t1.5 -43.5t1 -63.5t2.5 -101.5q241 229 461 262q49 9 102 5t104.5 -20t98 -44t82 -66t56.5 -86t23 -104q4 -55 -7.5 -108t-33 -100t-48.5 -87t-54 -68l-1 -2l-2 -2q-89 -80 -181.5 -128.5t-183 -74.5t-176.5 -34.5t-162 -8.5zM641 208
q24 -3 46 -4t48 -3h2q73 -3 157.5 -2.5t173 17t178.5 56.5t176 117q18 19 34.5 44.5t28.5 53.5t18.5 57.5t5.5 57.5q-8 43 -32.5 70t-59 42t-73.5 18.5t-75 -0.5q-101 -16 -222 -100t-255 -233z" />
    <glyph glyph-name="uni0637.init" unicode="&#x637;" horiz-adv-x="1509" arabic-form="initial" 
d="M378 196q23 -1 47.5 -0.5t48.5 0.5q75 0 158.5 1.5t172 18t179.5 54.5t181 112q56 47 78.5 103.5t11.5 113.5q-7 40 -32.5 68t-60 44.5t-74.5 20.5t-77 -4q-103 -23 -222.5 -105t-255.5 -231q-25 -27 -46.5 -53t-42.5 -51zM-102 98q0 20 8 37.5t21.5 31t31.5 21.5t38 8h9
h142q14 22 47.5 81t100.5 143q11 64 16.5 157.5t6.5 220.5q1 125 -5 244.5t-18 236.5q-11 118 -17 175.5t-6 58.5l202 36q55 -417 45 -887q241 224 460 262q51 8 100.5 7.5t96.5 -11.5t90 -34t81 -60q45 -45 70 -97.5t30 -118.5q4 -54 -7.5 -107.5t-32.5 -101.5t-48 -88
t-54 -68l-4 -6q-89 -80 -182 -127t-184 -72.5t-177 -33t-161 -7.5l-592 1h-9q-20 0 -38 7.5t-31.5 20.5t-21.5 31t-8 39z" />
    <glyph glyph-name="uni0637.medi" unicode="&#x637;" horiz-adv-x="1583" arabic-form="medial" 
d="M388 196q75 0 145.5 -1t137.5 1.5t130.5 12t126 30t123.5 55t122 88.5q18 18 34.5 43.5t28.5 54t18.5 58.5t5.5 58q-7 42 -32 69t-59.5 42t-73.5 19.5t-74 1.5q-102 -18 -222 -102.5t-256 -232.5q-24 -29 -46 -54.5t-42 -51.5zM-106 98q0 42 28 70t70 28h8h144
q14 21 53 78.5t101 132.5l7 10q10 12 15 56t6.5 109t0.5 147t-5 170t-9.5 177.5t-12 170.5t-13.5 148t-14 110l195 36q32 -203 47.5 -420t13.5 -462q246 229 461 262q200 32 361 -98q98 -83 107 -215q4 -56 -8 -109.5t-33 -100.5t-48 -86.5t-54 -67.5q-9 -9 -19 -17.5
t-19 -15t-15.5 -11l-6.5 -4.5h334q42 0 70 -27.5t28 -69.5q0 -41 -28 -69.5t-70 -28.5h-1v-1q-75 0 -132.5 -0.5t-114.5 -0.5q-44 0 -91.5 1t-97 5.5t-98.5 13t-95 23.5q-97 -29 -186 -35.5t-168 -6.5h-613q-42 0 -70 28t-28 70z" />
    <glyph glyph-name="uni0637.fina" unicode="&#x637;" horiz-adv-x="1867" arabic-form="final" 
d="M930 198q60 3 123.5 12t127 30.5t127 57t125.5 90.5q18 19 34.5 44.5t28.5 53.5t18.5 57.5t5.5 57.5q-7 41 -32 68.5t-59.5 43t-74 20t-74.5 -1.5q-101 -16 -222 -100t-255 -233l-151 -191zM1868 0h-919q-21 -1 -41.5 -1h-40.5q-23 0 -49.5 0.5t-76.5 3.5h-5
q-156 8 -311.5 42t-322.5 98l72 185q133 -52 258 -83q21 31 52.5 74t72.5 94l7 10q12 86 18 154t7 134.5t-3 141t-11 173.5q-8 108 -17 200.5t-17 160t-13.5 106t-5.5 39.5l196 36l3 -26t8 -68t11 -96t11.5 -110t11 -110t8.5 -97q4 -56 6.5 -89.5t4 -56.5t2.5 -41.5
t1.5 -43.5t1 -63.5t2.5 -101.5q241 229 461 262q49 9 102 5t104.5 -20t98 -44t82 -66t57 -86t22.5 -104q4 -55 -7.5 -108t-33 -100t-48.5 -87t-54 -68l-1 -2l-2 -2q-14 -13 -28 -24.5t-28 -22.5l346 -2h8q42 0 70 -28t28 -70q0 -41 -28 -69.5t-70 -28.5z" />
    <glyph glyph-name="uni0639" unicode="&#x639;" horiz-adv-x="1594" arabic-form="isolated" 
d="M828 -675q-74 0 -151 12t-151.5 39t-144.5 71.5t-130 109.5q-81 88 -117 202.5t-28 245.5q5 101 41.5 192.5t102.5 176.5q112 141 291 231q21 12 42.5 21.5t44.5 19.5l-6 4q-136 94 -152 265q-10 90 15 171.5t84 148.5q63 72 147 113t178 45q155 7 315 -96
q56 -37 88.5 -67.5t37.5 -33.5l-144 -137q-41 40 -88 71q-40 26 -92 47t-107 19q-54 -3 -102.5 -25.5t-82.5 -64.5q-21 -25 -39.5 -67t-13.5 -105q8 -80 68 -122q50 -33 135.5 -50t197.5 -1q46 6 87.5 12.5t73.5 11.5q37 6 69 12l42 -192q-2 0 -21.5 -3.5t-54 -9t-81 -13.5
t-101.5 -17q-87 -14 -151.5 -28.5t-116 -30t-94.5 -34t-88 -40.5q-24 -11 -56 -30.5t-67.5 -47t-70.5 -63.5t-63.5 -80.5t-47.5 -98t-23 -116.5q-5 -91 20.5 -164t74.5 -128.5t117 -92.5t147.5 -56t166.5 -19t173 18.5t167 55.5t150 94l115 -166q-82 -68 -161 -109
t-155 -63.5t-148.5 -30t-141.5 -7.5z" />
    <glyph glyph-name="uni0639.init" unicode="&#x639;" horiz-adv-x="1072" arabic-form="initial" 
d="M876 604q-34 37 -79 67q-38 26 -92 47t-122 21q-58 0 -102 -19.5t-73.5 -52.5t-44.5 -75.5t-15 -88.5q0 -63 28 -114t74.5 -87t107.5 -54t128 -14q60 4 114 10.5t96 14.5q49 8 92 18l24 -190q-56 -15 -127.5 -30t-167 -27t-218 -20t-281.5 -8l-218 -2q-42 0 -71 28
t-29 70t29 70t71 28l284 3q-73 66 -102.5 140.5t-29.5 163.5q0 88 32.5 166.5t90.5 137.5t136.5 93.5t171.5 34.5q46 0 89 -7.5t81 -20.5t71 -29t60 -33q64 -40 115 -90z" />
    <glyph glyph-name="uni0639.medi" unicode="&#x639;" horiz-adv-x="1138" arabic-form="medial" 
d="M1146 196q20 0 38 -8t31.5 -21.5t21.5 -31.5t8 -39q0 -41 -29 -69t-70 -28q-160 0 -297 29t-247 94q-63 -30 -137.5 -53t-153 -39t-158 -23.5t-152.5 -7.5q-41 0 -70 28t-29 69q0 21 8 39t21.5 31.5t31.5 21.5t38 8q51 0 108.5 4.5t113.5 12.5t106 19.5t87 26.5
q-39 36 -79 79t-81 90.5t-82 97.5t-83 98l10 139q51 46 106.5 77t109.5 50.5t105 30t93 14.5q102 11 198.5 -2t177.5 -47q53 -24 86 -51.5t51 -55.5t24.5 -52.5t6.5 -42.5q6 -47 -16.5 -106t-61.5 -119t-90 -116t-103 -95q68 -26 162 -39t196 -13zM604 357q28 15 58 39.5
t58.5 54t54 61.5t44.5 62.5t30.5 56t11.5 42.5q-52 34 -120 52t-142 18t-149 -18t-139 -55q83 -101 152 -178t141 -135z" />
    <glyph glyph-name="uni0639.fina" unicode="&#x639;" horiz-adv-x="1357" arabic-form="final" 
d="M669 -587q60 -9 135.5 -9t155 13t156.5 41t139 73l102 -170q-73 -44 -135 -73.5t-124 -47.5t-129 -25.5t-150 -7.5q-92 0 -187.5 16.5t-183.5 54t-163.5 98.5t-127.5 150q-33 55 -48 124t-14 140.5t17 140t45 122.5q31 55 75.5 104.5t97 91t111.5 75t118 57.5
q-75 68 -135 130.5t-102 108.5l-26 30l-12 122q32 49 78 84.5t95.5 60.5t97.5 40.5t84 24.5q55 12 111 18.5t109.5 6t103 -8t91.5 -21.5q105 -32 160 -97t52 -153q-4 -173 -156 -293q-75 -59 -166 -101q97 -59 200 -98t211 -39q20 0 38 -8.5t31 -22t20.5 -31t7.5 -37.5
q0 -42 -28 -69.5t-69 -28.5q-82 0 -161 17.5t-156.5 49.5t-154 76.5t-153.5 98.5q-77 -30 -155 -70t-141 -94t-103 -123.5t-40 -159.5q0 -51 18 -97t48.5 -86.5t69.5 -74.5t81 -59.5t84 -42t77 -21.5zM504 716q50 -52 113.5 -117t142.5 -131q74 31 131 60t96 60.5t59 66.5
t22 77q0 10 -6.5 19t-17 16.5t-23.5 13t-25 9.5q-56 17 -123 19t-134.5 -9t-129 -32.5t-105.5 -51.5z" />
    <glyph glyph-name="uni0643.init" unicode="&#x643;" horiz-adv-x="942" arabic-form="initial" 
d="M-108 97q0 42 30 70.5t78 28.5h34q15 0 33.5 -0.5t37.5 0.5q60 0 125 1.5t124.5 12t108 33t76.5 64.5q33 50 38.5 109t-12.5 128q-11 41 -54.5 104.5t-107.5 136t-143 148.5t-161 142l23 205l822 352l77 -182l-716 -301q49 -42 107 -94t115 -115q76 -84 125 -160.5
t76 -145.5t36 -130.5t4 -115.5t-20.5 -100t-36.5 -84q-90 -159 -301 -198q-38 -7 -87 -7l-323 1q-48 0 -78 28t-30 69z" />
    <glyph glyph-name="uni0643.medi" unicode="&#x643;" horiz-adv-x="1188" arabic-form="medial" 
d="M-109 98q0 20 8 38t21.5 31.5t31.5 21t38 7.5h9h330q40 0 80.5 16t73 43t54 61.5t24.5 70.5q5 57 -14.5 119.5t-55.5 126.5t-84 127t-100.5 119.5t-105.5 104t-98 82.5l26 221l884 381l77 -182l-793 -333q76 -62 133.5 -123t103.5 -123t82.5 -124t70 -124t66.5 -125
t71 -127q29 -48 62 -86.5t71.5 -65.5t85 -42.5t102.5 -16.5h42q42 0 70 -28.5t28 -69.5q0 -42 -28 -70t-70 -28h-8q-72 0 -126.5 9t-106.5 26q-71 26 -131 76t-105 108q-35 -64 -86 -112q-33 -29 -69.5 -49t-76 -32t-80.5 -18t-82 -8h-326q-41 0 -70 28t-29 70z" />
    <glyph glyph-name="uni0643" unicode="&#x643;" horiz-adv-x="2024" arabic-form="isolated" 
d="M1144 868q-12 3 -27 6q-13 2 -29.5 4.5t-35.5 2.5q-15 0 -30.5 -2.5t-31.5 -9.5v2q-32 -14 -51.5 -42.5t-19.5 -61.5q0 -17 8 -36l-1 1q14 -35 49.5 -58.5t78.5 -23.5q11 0 21 1t21 6q26 8 51 21t45 25q23 14 43 29l59 -78q-39 -29 -98 -62t-144 -80l-227 -126l-48 87
l179 100q-41 17 -72.5 49t-48.5 71q-14 34 -14 74q0 31 9.5 60.5t27 55t42 45.5t54.5 32q47 19 98 19q23 0 44 -3t38 -7q19 -4 38 -9zM1862 955q6 -181 10 -291t4 -156q-1 -50 -11.5 -100t-36.5 -99q-82 -153 -284 -233q-111 -43 -253.5 -65t-319.5 -22q-361 5 -575 84
q-206 78 -280 229q-42 81 -42 176t39 198q14 36 29 66t27.5 52t21.5 35.5l11 16.5l159 -118q-6 -8 -12 -17t-11 -19q-10 -17 -21 -39.5t-21 -50.5q-46 -127 -4 -210q49 -98 224 -150.5t455 -53.5q321 0 500 71q135 55 182 143q15 27 20.5 56.5t6.5 58.5q-2 59 -6 169.5
t-11 261.5q-4 110 -9.5 205.5t-10.5 167.5t-9.5 116.5t-5.5 53.5l196 21q1 -16 5.5 -63.5t10.5 -120.5t11.5 -168t10.5 -205z" />
    <glyph glyph-name="uni0643.fina" unicode="&#x643;" horiz-adv-x="2072" arabic-form="final" 
d="M1075 890q-12 3 -27 6q-13 2 -29.5 4.5t-35.5 2.5q-15 0 -30.5 -2.5t-31.5 -9.5v2q-32 -14 -51.5 -42.5t-19.5 -61.5q0 -17 8 -36l-1 1q14 -35 49.5 -58.5t78.5 -23.5q11 0 21 1t21 6q26 8 51 21t45 25q23 14 43 29l59 -78q-39 -29 -98 -62t-144 -80l-227 -126l-48 87
l179 100q-41 17 -72.5 49t-48.5 71q-14 34 -14 74q0 31 9.5 60.5t27 55t42 45.5t54.5 32q47 19 98 19q23 0 44 -3t38 -7q19 -4 38 -9zM1909 284q10 -20 23.5 -36.5t33 -28t47.5 -17.5t67 -6v-196q-122 0 -207 47q-87 51 -136 145q-81 -82 -211 -133q-111 -43 -253.5 -65
t-319.5 -22q-361 5 -575 84q-206 78 -280 229q-42 81 -42 176t39 198q14 36 29 66t27.5 52t21.5 35.5l11 16.5l159 -118q-6 -8 -12 -17t-11 -19q-10 -17 -21 -39.5t-21 -50.5q-46 -127 -4 -210q49 -98 224 -150.5t455 -53.5q321 0 500 71q135 55 182 143q15 27 20.5 56.5
t6.5 58.5q-2 59 -10 169.5t-15 261.5q-4 110 -9.5 205.5t-10.5 167.5t-9.5 116.5t-5.5 53.5l196 21q1 -16 5.5 -63.5t10.5 -120.5t11.5 -168t10.5 -205q2 -75 8.5 -136.5t8.5 -112.5h1v-46q1 -25 1.5 -46t1.5 -40q5 -97 17.5 -163.5t34.5 -109.5z" />
    <glyph glyph-name="uni0644" unicode="&#x644;" horiz-adv-x="1483" arabic-form="isolated" 
d="M367 339q-29 -44 -52 -106q-20 -54 -36.5 -132t-16.5 -183q0 -99 38 -169.5t94.5 -115.5t120.5 -67t116 -25q50 -3 105.5 5t109.5 29t103 56.5t86.5 86t60 117t22.5 151.5q0 79 -2.5 187t-6 231t-8.5 253.5t-10 254.5q-11 291 -26 609l196 8q15 -320 26 -613
q5 -125 10 -256t8.5 -254.5t6 -232t2.5 -187.5q0 -126 -32 -223.5t-85.5 -170t-123 -121.5t-145.5 -78.5t-153 -40.5t-144 -7q-61 3 -126.5 19t-128.5 46.5t-119.5 75.5t-99 107.5t-67.5 143.5t-24 181q1 129 20 222.5t42 156.5q26 72 60 122z" />
    <glyph glyph-name="uni0644.init" unicode="&#x644;" horiz-adv-x="558" arabic-form="initial" 
d="M-98 98q0 42 28.5 70t69.5 28h9h47q113 0 161 48q52 54 51 206v26q0 45 -5 165t-12 299q-4 110 -9.5 205.5t-10.5 167.5t-9.5 116.5t-5.5 53.5l196 21q1 -16 5.5 -63.5t10.5 -120.5t11.5 -168t10.5 -205q6 -181 10.5 -302t4.5 -167v-14.5t1 -11.5q1 -38 -2 -82.5
t-14 -90.5t-32.5 -91t-58.5 -83q-105 -105 -303 -105h-47h-9q-41 0 -69.5 28.5t-28.5 69.5z" />
    <glyph glyph-name="uni0644.medi" unicode="&#x644;" horiz-adv-x="649" arabic-form="medial" 
d="M-111 98q0 41 28.5 69.5t69.5 28.5h9h86q30 1 50.5 3t35.5 5t24.5 7.5t17.5 10.5q15 11 24.5 29.5t15.5 41.5t8.5 48.5t4.5 51.5q0 2 1 40.5t2 102.5t2 148.5t1.5 177t0 188.5t-2.5 184t-5 162t-9 123l195 25q7 -51 11 -126t6.5 -162.5t3 -183t0 -188.5t-1.5 -178.5
t-2 -152.5t-2 -110.5t-1 -53.5q0 -23 5.5 -56.5t25.5 -65.5q19 -31 53.5 -51t102.5 -20q21 0 39 -7.5t31.5 -21t21.5 -31.5t8 -38q0 -42 -29 -70t-71 -28q-50 -1 -92.5 7t-77 22.5t-61.5 33.5t-47 40q-10 -11 -19 -19.5t-19 -16.5q-28 -23 -57.5 -36t-59 -20t-58 -9
t-53.5 -2h-109h-9q-41 0 -69.5 28t-28.5 70z" />
    <glyph glyph-name="uni0644.fina" unicode="&#x644;" horiz-adv-x="1481" arabic-form="final" 
d="M346 339q-30 -39 -53 -99q-20 -51 -36 -130.5t-16 -191.5q0 -66 19 -120t50 -95.5t70.5 -72t80.5 -50.5t80 -29.5t69 -9.5q46 0 100.5 6.5t108.5 23t104 45.5t89 74t62 108t23 148q0 79 -2.5 188.5t-6 235t-8.5 259.5t-10 262q-11 300 -26 630l196 8q8 -180 16 -370
q3 -81 7 -172t7.5 -187t7 -193t6.5 -190q4 -63 28 -111q10 -21 25 -40.5t36 -35t49.5 -25t65.5 -9.5q21 0 39 -8t31.5 -21.5t21 -31.5t7.5 -38q0 -42 -28.5 -69.5t-70.5 -27.5q-35 0 -63 3t-51.5 9t-43 14t-38.5 19q1 -27 1 -52v-47q0 -126 -31.5 -219.5t-84.5 -160.5
t-122 -109.5t-145 -67.5t-153.5 -34.5t-146.5 -9.5q-68 0 -136 14.5t-131 44.5t-117.5 76.5t-94.5 110t-63 145.5t-23 182q0 139 19.5 237t43.5 162q28 74 64 123z" />
    <glyph glyph-name="uni0645" unicode="&#x645;" horiz-adv-x="1178" arabic-form="isolated" 
d="M134 -731l-37 927q0 6 0.5 28t7.5 50.5t24 59t49 54.5q13 10 31.5 19.5t42.5 14t53.5 3.5t65.5 -11q11 34 27 72t37 79q31 58 62.5 102.5t63.5 77.5q102 100 220 96q81 -3 147 -35.5t114 -95.5q75 -103 85 -251q5 -68 -4.5 -133t-33.5 -123q-29 -73 -75 -117t-104 -54
q-28 -4 -62 1t-78 18.5t-99.5 35t-127.5 50.5q-56 24 -111.5 46t-105.5 38q-9 3 -16.5 5t-12.5 2q-3 -15 -3 -24l36 -935h-196zM556 346l63 -26q46 -20 89.5 -36.5t81.5 -30.5t58.5 -19t27.5 -6q8 5 19.5 25.5t22.5 62.5q12 45 13.5 93t-10.5 93q-12 52 -32.5 80.5t-42 42
t-41.5 16.5t-31 3q-35 1 -78 -44t-84 -126q-18 -33 -31.5 -66.5t-24.5 -61.5z" />
    <glyph glyph-name="uni0645.init" unicode="&#x645;" horiz-adv-x="1138" arabic-form="initial" 
d="M-97 98q0 41 28 68.5t69 29.5h1q84 0 142 27.5t101 73t75 104t63 120.5q26 54 52 103t60 90q90 110 218 110q151 0 251 -121q80 -96 96 -241q10 -69 3 -135t-29 -125q-29 -72 -77 -118.5t-111 -63.5q-112 -30 -253 27q-97 38 -203 116q-7 -7 -10 -9q-149 -154 -378 -154
h-1q-41 0 -69 28.5t-28 69.5zM504 325q91 -67 166 -97t125 -16q17 4 32 23t25 49t13.5 69t-2.5 84q-1 7 -4.5 24t-10 38t-17.5 43.5t-27.5 41t-39 30.5t-52.5 12q-20 0 -37.5 -11.5t-35 -35.5t-37 -60t-44.5 -85z" />
    <glyph glyph-name="uni0645.medi" unicode="&#x645;" horiz-adv-x="1311" arabic-form="medial" 
d="M467 323q40 -30 78 -54.5t72.5 -40.5t64.5 -22.5t54 -1.5q27 6 50.5 27t39 52.5t22 70t0.5 80.5q-1 7 -6 24t-14.5 38t-23.5 43.5t-33 41t-43 30.5t-54 12q-29 0 -54 -25q-23 -25 -46 -64.5t-52 -102.5q-13 -26 -26 -52.5t-29 -55.5zM-101 96q0 21 7.5 39t21 31.5
t31.5 21.5t38 8h2q66 0 117.5 27t91.5 70.5t72 99t61 112.5t56.5 111t58.5 95q44 52 99 81.5t121 29.5q77 0 137.5 -31t112.5 -91q36 -42 62 -92t47 -101.5t40 -101.5t42.5 -91t54.5 -70.5t75 -40.5q17 -5 32.5 -6t32.5 -1q42 0 71 -29t29 -71q0 -41 -29 -68.5t-71 -27.5
q-64 0 -115.5 17t-92 43.5t-72 58t-54.5 61.5q-24 -54 -60 -95.5t-102 -66.5q-49 -18 -118.5 -10t-143.5 37q-49 20 -99 48.5t-103 67.5l-4 -4l-4 -6q-38 -38 -74 -66t-75.5 -46.5t-84.5 -28t-100 -10.5h-13q-41 0 -69.5 27.5t-28.5 68.5z" />
    <glyph glyph-name="uni0645.fina" unicode="&#x645;" horiz-adv-x="1358" arabic-form="final" 
d="M1101 476q5 -28 15 -63.5t28.5 -71.5t47.5 -68t71 -53q19 -10 42 -16t50 -8h9q21 0 39 -7.5t31.5 -21t21 -31t7.5 -38.5t-7.5 -38.5t-21 -31t-31.5 -21t-39 -7.5h-11q-196 10 -311 157q-59 -109 -158 -126q-21 -9 -64.5 0t-99.5 28t-119.5 44.5t-124.5 50.5t-114.5 45
t-89.5 28q0 -3 -1 -6.5t-1 -6.5l37 -936l-199 -9l-38 926q0 6 1 27.5t9 50t24.5 59t48.5 54.5q13 10 31.5 19.5t42 15t53 4.5t65.5 -11q17 47 39 97t50 98t61.5 90.5t73.5 74.5t86.5 50t100.5 17q80 -5 141 -35.5t103.5 -80t67 -113.5t33.5 -136zM531 344
q63 -25 104.5 -42.5t75 -30t65 -23t74.5 -21.5q12 8 23 32t19.5 53.5t13.5 59.5t5 49q0 54 -16.5 95.5t-40.5 69.5t-52 42.5t-51 14.5q-28 1 -60.5 -24.5t-63 -68t-56 -96.5t-40.5 -110z" />
    <glyph glyph-name="uni0647" unicode="&#x647;" horiz-adv-x="974" arabic-form="isolated" 
d="M485 0q-5 0 -24.5 1t-48.5 5.5t-65.5 14t-73.5 27.5q-95 44 -144.5 120t-49.5 179q0 180 163 377q33 39 63.5 70t53.5 52q-30 27 -48 42t-18 16l126 153q1 -2 21.5 -19t52.5 -47t73 -70.5t84 -88.5q122 -139 182.5 -260.5t60.5 -224.5t-45.5 -179t-133.5 -119
q-32 -16 -65 -25.5t-63 -15t-56.5 -7t-44.5 -1.5zM497 704q-29 -26 -67.5 -66t-72.5 -88t-57.5 -100.5t-23.5 -102.5q0 -15 2.5 -31t11 -31.5t24.5 -30.5t43 -27q19 -9 39 -14.5t37 -8.5t31 -4t21 -1q9 0 25.5 0.5t36 3t40 8t39.5 14.5q37 20 53.5 48.5t16.5 73.5
q0 65 -50 156t-145 197q-1 1 -1.5 2t-2.5 2z" />
    <glyph glyph-name="uni0647.init" unicode="&#x647;" horiz-adv-x="1395" arabic-form="initial" 
d="M742 202q122 -22 208.5 -4.5t135.5 59.5t61.5 101t-13.5 121t-89.5 119t-166.5 95q15 -63 13.5 -130t-18.5 -131.5t-50 -123t-81 -106.5zM-108 99q0 41 28.5 69t69.5 28h9q15 0 38 0.5t47 1.5t46.5 2t36.5 1q29 2 57.5 5t54.5 6q-51 48 -81.5 110t-41 129.5t-1.5 136.5
t37 130t75.5 110.5t113.5 78.5q-12 5 -26.5 11.5t-27 12t-22 9.5t-10.5 4l89 179q3 0 30 -10.5t72 -29t103.5 -43.5t124.5 -54q92 -42 174.5 -83.5t151.5 -84t121.5 -86t84.5 -89.5q54 -78 74 -161.5t6.5 -162t-61.5 -146.5t-130 -115q-27 -16 -64.5 -27.5t-78 -19t-81 -11
t-74.5 -3.5q-85 0 -169.5 16t-160.5 50q-45 -15 -104.5 -27t-126.5 -20t-137.5 -12t-139.5 -4h-9q-41 0 -69.5 28.5t-28.5 70.5zM562 792q-23 4 -48.5 -7.5t-50.5 -34t-47 -53.5t-38 -65.5t-24 -69t-4 -64.5q10 -76 54.5 -129.5t107.5 -90.5q57 25 96.5 70t60.5 99.5
t25 111.5t-9.5 105.5t-44.5 83.5t-78 44z" />
    <glyph glyph-name="uni0647.medi" unicode="&#x647;" horiz-adv-x="1005" arabic-form="medial" 
d="M512 705q-29 -3 -56.5 -29.5t-52 -68t-44.5 -93.5t-33 -106t-18 -106.5t0 -93.5q66 -8 119 16.5t91 69t58.5 101.5t21 115t-20 110t-65.5 85zM-99 98q0 41 28 69.5t70 28.5h112q-3 58 6.5 133t31.5 154t55.5 154.5t79 136t102.5 99t125 41.5q58 3 104.5 -29t80.5 -84.5
t55 -119t29 -134t2 -129t-27 -102.5q-23 -66 -63.5 -117t-93.5 -88t-115.5 -61t-129.5 -35q12 -29 31.5 -71t44.5 -84t54.5 -78.5t61.5 -55.5q-5 63 11 122.5t48 111.5t77 95.5t98 74.5t111 48.5t115 17.5q42 0 70.5 -28.5t28.5 -69.5q0 -42 -28.5 -70t-70.5 -28h-8
q-55 -3 -104.5 -28.5t-88 -66.5t-62.5 -93t-28 -107.5t15 -110t66 -100.5l-125 -152q-106 64 -189 140t-146 158t-107 167t-71 168l-9 25h-149q-42 0 -70 28t-28 70z" />
    <glyph glyph-name="uni0647.fina" unicode="&#x647;" horiz-adv-x="1090" arabic-form="final" 
d="M642 702q-24 -10 -57 -24.5t-68.5 -33t-70 -41t-62 -48t-44.5 -55t-17 -61.5q0 -33 20.5 -53.5t53 -32t73.5 -15.5t82.5 -3.5t79 4.5t63.5 9q-12 58 -24.5 142t-28.5 212zM544 140q-258 0 -359 125q-28 34 -39.5 72.5t-13 75.5t4.5 69t15 53q27 56 64.5 103t80 84.5
t88 67t88 51.5t80.5 38t66 26q-8 76 -11.5 111.5t-3.5 36.5l196 41v1q1 -9 4 -37t7 -66.5t8.5 -82t8.5 -81.5t7 -66t4 -35q15 -129 28 -211t23 -130.5t16.5 -69.5t9.5 -27q12 -27 27.5 -45t36.5 -28.5t48 -15t62 -4.5q41 0 70 -28t29 -70q0 -20 -8 -38t-21.5 -31.5
t-31.5 -21t-38 -7.5q-38 0 -90.5 6.5t-104.5 30.5q-80 38 -132 122q-62 -10 -116 -14.5t-103 -4.5z" />
    <glyph glyph-name="uni0648" unicode="&#x648;" horiz-adv-x="1051" arabic-form="isolated" 
d="M518 650q-29 0 -55 -22.5t-46.5 -57.5t-34.5 -78.5t-19.5 -86t-0.5 -79t22 -57.5q15 -20 38 -32.5t48 -20t49.5 -11t42.5 -4.5q63 -4 115.5 -3t91.5 4q-3 63 -15 120.5t-30.5 106.5t-42.5 88.5t-49 68.5q-10 10 -22.5 21.5t-27 21t-31 15.5t-33.5 6zM123 -702l-46 193
q154 31 276 86t209 124t137.5 146.5t61.5 152.5q-42 -1 -99.5 -0.5t-112.5 5.5q-217 14 -321 142q-46 58 -58.5 134t-1 155.5t42.5 154t73 128.5q50 63 110 95.5t124 32.5q142 0 261 -128q51 -56 89.5 -129.5t62.5 -157.5t32.5 -175t-0.5 -182q-11 -110 -49 -205.5
t-97 -176.5t-136.5 -147t-167 -115.5t-188.5 -83t-202 -49.5z" />
    <glyph glyph-name="uni0648.fina" unicode="&#x648;" horiz-adv-x="1043" arabic-form="final" 
d="M124 -702l-46 193q154 31 276 86t209 124t137.5 146.5t61.5 152.5q-42 -1 -99.5 -0.5t-112.5 5.5q-217 14 -321 142q-46 58 -58.5 134t-1 155.5t42.5 154t73 128.5q50 63 110 95.5t124 32.5q142 0 261 -128q42 -47 76 -106t58 -126.5t38 -141t16 -149.5h75q21 0 39 -7.5
t31.5 -21t21.5 -31.5t8 -39q0 -20 -8 -37.5t-21.5 -31t-31.5 -21t-39 -7.5h-90q-30 -148 -108.5 -267.5t-190 -208.5t-248.5 -146t-282 -80zM519 650q-29 0 -55 -22.5t-46.5 -57.5t-34.5 -78.5t-19.5 -86t-0.5 -79t22 -57.5q15 -20 38 -32.5t48 -20t49.5 -11t42.5 -4.5
q63 -4 115.5 -3t91.5 4q-3 63 -15 120.5t-30.5 106.5t-42.5 88.5t-49 68.5q-10 10 -22.5 21.5t-27 21t-31 15.5t-33.5 6z" />
    <glyph glyph-name="uni0649" unicode="&#x649;" horiz-adv-x="1733" arabic-form="isolated" 
d="M1371 832q69 14 132 10t111 -15t77.5 -23t32.5 -13l-87 -183l-19 7.5t-49.5 14t-71 9t-84.5 -6.5q-42 -4 -87.5 -26t-87.5 -57t-78 -79.5t-59.5 -92.5t-31.5 -97t7 -92q13 -37 45.5 -59t76.5 -37t95.5 -26t101.5 -25.5t95 -35.5t76.5 -56.5t45 -88t0.5 -129.5
q-18 -98 -88 -180t-186 -140q-110 -56 -249.5 -85t-303.5 -29q-189 0 -334.5 54.5t-238.5 158.5q-82 94 -115.5 218t-15.5 271q8 65 22 134.5t30.5 135.5t34 125.5t32 105.5t24.5 74t11 32l191 -67q-45 -140 -84 -279t-58 -285q-5 -36 -5.5 -78t8 -85.5t27 -86t51.5 -79.5
q63 -72 169.5 -108t250.5 -36q142 0 256 22.5t194.5 60t125.5 85t50 98.5q2 24 -17 40t-52 28t-76.5 22t-91 23.5t-94.5 32t-87 46t-69.5 67t-40.5 95.5q-16 79 -7.5 157.5t36.5 152t74 139t105.5 118t130.5 90t149 53.5z" />
    <glyph glyph-name="uni0649.fina" unicode="&#x649;" horiz-adv-x="1715" arabic-form="final" 
d="M830 -652q-87 0 -180 8.5t-179 34.5t-158 73.5t-118 125.5q-108 158 -96 410q7 137 49 299t121 353l183 -74q-128 -314 -151.5 -535t57.5 -344q41 -59 101.5 -90.5t126 -45.5t130 -16t114.5 -2q29 0 82 4.5t115 15.5t126.5 29.5t117 45.5t85.5 64.5t33 85.5
q0 12 -11 28.5t-35.5 35.5t-63.5 40t-96 42q-35 12 -69.5 22.5t-64.5 18t-55 13.5t-41 9l-22 4l15 194l770 -1q41 0 70 -28t29 -70t-29 -70t-70 -28h-239q34 -28 55.5 -56.5t33.5 -55.5t16 -52t4 -46q-1 -85 -39 -151t-100 -115t-141 -82.5t-162.5 -54.5t-165.5 -30t-148 -9
z" />
    <glyph glyph-name="uni066E.init" unicode="&#x66e;" horiz-adv-x="700" 
d="M-105 98q0 42 28.5 70t69.5 28h103q53 -2 102 0.5t90 14.5t72.5 36.5t51.5 66.5q20 43 11.5 122.5t-40.5 185.5q-11 32 -25.5 69.5t-28.5 69.5q-16 38 -33 75l178 88q0 -1 9.5 -20.5t23.5 -52.5t31 -76.5t32 -92.5q93 -287 23 -448q-71 -161 -252 -212
q-54 -16 -105.5 -19t-96.5 -3h-137h-9q-41 0 -69.5 28t-28.5 70z" />
    <glyph glyph-name="uni066E.medi" unicode="&#x66e;" horiz-adv-x="705" 
d="M-94 98q0 41 28 69.5t70 28.5h17q168 0 244 60.5t76 179.5q0 28 -3 64t-9 75t-14.5 79.5t-19.5 78.5l188 53q13 -45 23 -93t17 -93.5t10.5 -87.5t3.5 -76v-5q0 -37 7 -78t25.5 -76t51 -58t83.5 -23q20 0 38 -7.5t31.5 -21t21.5 -31.5t8 -38q0 -21 -8 -38.5t-21.5 -31
t-31 -21t-37.5 -7.5q-50 0 -91.5 9t-75 25.5t-60 39.5t-47.5 50q-63 -62 -163.5 -93t-246.5 -31h-17q-42 0 -70 28t-28 70z" />
    <glyph glyph-name="uni066E.fina" unicode="&#x66e;" horiz-adv-x="2316" 
d="M1923 164q-39 46 -62 109q-264 -276 -833 -276q-304 2 -503.5 72.5t-289.5 222.5q-29 49 -44.5 101t-20 103.5t0 101.5t16.5 95q12 47 24.5 85t23.5 65.5t19 43.5t10 19l173 -95q0 -1 -9 -20t-20 -50t-21.5 -72t-13 -86t5.5 -92t33 -89q60 -102 215.5 -153.5t400.5 -52.5
q221 0 376 38.5t258 122.5q46 36 79.5 79t57 89t39.5 93t29 92l190 -52q-5 -20 -11 -44.5t-12 -53.5q-12 -59 -11 -100q2 -43 13 -90t42 -84q71 -89 238 -89q42 0 70.5 -28.5t28.5 -70.5t-28.5 -70t-70.5 -28h-8q-260 3 -385 164z" />
    <glyph glyph-name="uni066F.init" unicode="&#x66f;" horiz-adv-x="895" 
d="M428 927q-14 0 -33 -13.5t-37.5 -40.5t-34.5 -66t-24 -90q-14 -75 17 -112q20 -24 58.5 -39t92.5 -18q51 -2 95.5 -2t77.5 2q-7 97 -37.5 183.5t-81.5 142.5q-16 18 -40.5 35.5t-52.5 17.5zM-101 98q0 42 29 70t71 28q111 0 204.5 10.5t167 27t124.5 37t75 39.5
q13 11 21 20l16 18h-101q-54 0 -105 8.5t-96 25.5t-82 42.5t-63 58.5q-14 18 -28 43.5t-23 59t-11 75t6 91.5q14 77 41 140.5t66 113.5q45 59 101 89t116 30q132 0 240 -117q46 -51 81.5 -118t57.5 -143.5t30 -158.5t-1 -162h-1q-6 -40 -17 -81q-3 -12 -9 -32.5t-20 -46
t-37.5 -54t-59.5 -56.5q-48 -38 -121.5 -67t-162.5 -48.5t-190 -29.5t-204 -11h-17q-41 0 -69.5 28.5t-28.5 69.5z" />
    <glyph glyph-name="uni066F.medi" unicode="&#x66f;" horiz-adv-x="970" 
d="M481 741q-27 0 -58.5 -19.5t-58.5 -55t-44.5 -85.5t-17.5 -112q0 -47 44.5 -92.5t127.5 -83.5l16 -7q59 26 90 70.5t41 95t2 102t-28.5 93t-50.5 68t-63 26.5zM-152 98q0 21 7.5 39t21 31t31 20.5t38.5 7.5q35 0 75.5 1t79.5 3t74.5 5t60.5 6q-130 114 -130 258
q0 93 28.5 177t82.5 152t123.5 105.5t142.5 34.5q89 -4 156 -42t111.5 -98t65.5 -135.5t17.5 -154t-32 -154t-82.5 -134.5q30 -6 66 -10.5t74 -7.5t76 -4.5t71 -1.5q42 0 70.5 -28t28.5 -70q0 -21 -7.5 -38.5t-21 -31t-31.5 -21t-39 -7.5h-9q-31 0 -67 1t-73 3.5t-72 5.5
t-64 8q-60 10 -115.5 23t-108.5 30q-47 -18 -109 -31t-133 -22t-148 -13.5t-153 -4.5h-8q-42 0 -70 28t-28 70z" />
    <glyph glyph-name="uni066F.fina" unicode="&#x66f;" horiz-adv-x="1570" 
d="M1022 648q-36 0 -78 -53q-29 -35 -47.5 -83t-29.5 -107q-15 -92 21 -136q15 -20 37.5 -32.5t47.5 -20t49.5 -11t42.5 -5.5q63 -3 114.5 -4t93.5 0q-3 64 -15 121.5t-31 107t-42.5 90t-49.5 70.5q-20 21 -49 42t-64 21zM1232 -3q-38 0 -83 1.5t-96 4.5q-109 8 -189.5 44
t-131.5 99q-91 119 -60 292q14 84 43.5 154.5t72.5 124.5q50 63 109 96t125 33q143 0 260 -129q43 -47 76.5 -105.5t57.5 -125.5t37.5 -140t16.5 -149q20 -1 45 -1h56q41 0 70 -28t29 -70q0 -20 -8 -38t-21.5 -31.5t-31.5 -21t-38 -7.5h-9h-105q-8 -51 -28.5 -122.5
t-59.5 -148.5q-81 -157 -214 -251q-167 -115 -398 -115q-197 0 -348 77q-155 77 -241 221q-51 85 -73 186t-14 215q8 116 46.5 237t107.5 251l175 -93q-111 -208 -129.5 -386.5t56.5 -306.5q60 -99 167 -150.5t253 -51.5q301 0 433 252q26 50 42 97.5t24 85.5h-24z" />
    <glyph glyph-name="uni06C1.init" unicode="&#x6c1;" horiz-adv-x="728" arabic-form="initial" 
d="M470 -441q-56 6 -88.5 44t-32.5 88q0 85 40 175t118 193l73 -45q-86 -119 -86 -215q0 -37 26 -60.5t85 -41.5q-19 -40 -44.5 -69.5t-52 -49t-38.5 -19.5zM-98 98q0 42 28.5 70t69.5 28h58q53 -2 102 0.5t90 14.5t72.5 36.5t51.5 66.5q20 43 11.5 122.5t-40.5 185.5
q-11 32 -25.5 69.5t-28.5 69.5q-16 38 -33 75l178 88q0 -1 9.5 -20.5t23.5 -52.5t31 -76.5t32 -92.5q93 -287 23 -448q-71 -161 -252 -212q-54 -16 -105.5 -19t-96.5 -3h-92h-9q-41 0 -69.5 28t-28.5 70z" />
    <glyph glyph-name="uni06C1.medi" unicode="&#x6c1;" horiz-adv-x="1000" arabic-form="medial" 
d="M841 -547q-56 6 -88 44t-32 87q0 88 37 169.5t110 176.5l74 -45q-76 -103 -76 -192q0 -37 26 -60.5t85 -42.5q-19 -40 -44.5 -69t-53 -48.5t-38.5 -19.5zM180 349l181 -64q-68 -349 113 -555q15 82 44.5 164t79.5 152q41 58 107.5 94.5t155.5 49.5q26 4 49 5t42 1
t32.5 -0.5t21.5 -0.5h9v-195h-14l-12 1h1q-7 1 -16.5 1h-20.5q-23 0 -50.5 -3t-55.5 -10.5t-52 -20.5t-39 -34q-30 -43 -50 -94.5t-32 -104.5t-17 -104t-4 -93l-149 -84q-171 107 -261 268q-38 69 -60.5 143.5t-30.5 157.5q-35 -11 -75.5 -17t-88.5 -6v195q48 0 81 7t50 21
q11 9 18.5 25t16.5 40q5 14 11 29.5t15 31.5z" />
    <glyph glyph-name="uni06BE" unicode="&#x6be;" horiz-adv-x="1520" arabic-form="isolated" 
d="M882 202q26 -3 49.5 -5t45.5 -2q81 0 142 32t92 90q26 51 20.5 106.5t-42.5 107.5q-56 83 -199 171q9 -32 14 -69.5t5 -80.5q0 -56 -7.5 -104t-24.5 -94q-32 -84 -95 -152zM671 756q-23 0 -56.5 -15t-65.5 -52q-10 -12 -22 -29.5t-21.5 -41.5t-14.5 -54.5t-1 -66.5
q10 -76 54.5 -129.5t107.5 -90.5q20 10 35.5 20t29.5 21q50 42 72.5 97.5t22.5 136.5q0 71 -17.5 112t-40.5 61.5t-47 25.5t-36 5zM68 176q0 21 12 38.5t30.5 29.5t40 16.5t40.5 -1.5q39 -12 80 -21.5t74 -15.5t54 -8.5t20 -1.5q-11 11 -19.5 20t-14.5 19q-39 50 -61 105
t-30 117q-13 97 15 186.5t93 161.5q52 60 119 93q-47 19 -55 19l58 189q3 0 30 -8.5t72 -25t104 -40t125 -52.5q368 -167 496 -352q34 -49 53.5 -101.5t24 -106.5t-6 -107t-36.5 -103q-57 -106 -162 -166q-54 -32 -116.5 -47.5t-130.5 -15.5q-85 0 -169.5 16t-160.5 49
q-50 -25 -108 -33.5t-121 -4.5t-129.5 17t-132.5 31q-46 15 -67 39t-21 65z" />
    <glyph glyph-name="uni06D2" unicode="&#x6d2;" horiz-adv-x="1888" arabic-form="isolated" 
d="M784 761l190 -42q-1 -6 -9 -33.5t-24.5 -64t-43 -75t-65.5 -66.5q-26 -19 -63.5 -33.5t-89.5 -31.5q-51 -18 -110.5 -40t-111.5 -51q-69 -38 -102 -78q15 -11 43 -23t77 -23q38 -8 85.5 -14t106.5 -10t131.5 -6t160.5 -2q105 0 207.5 10t194 24.5t169.5 32t135 32.5
t89.5 25t33.5 10l61 -185q-2 0 -22 -6.5t-55.5 -16.5t-85.5 -23t-111 -26q-56 -12 -126 -24.5t-149.5 -23t-165.5 -17t-175 -6.5q-94 0 -171.5 2t-141 6t-116 11t-95.5 16q-106 24 -172 65q-79 49 -112 129l-1 69q25 71 78.5 123.5t120 90.5t137 65t130.5 48q14 5 30 10.5
t30.5 10.5t25.5 10t16 8q13 9 24 25.5t19.5 34.5t14.5 35t8 28z" />
    <glyph glyph-name="uni06D2.fina" unicode="&#x6d2;" horiz-adv-x="1276" arabic-form="final" 
d="M1284 196v-195q-1 0 -35 -2t-88.5 -5.5t-124 -9t-141 -12.5t-139.5 -15t-121 -17q-54 -9 -103.5 -27.5t-94.5 -41.5t-84 -48.5t-70 -49.5q163 -42 437 -60q37 -2 73.5 -3t71.5 -1q86 0 162.5 5t134 10.5t91 10.5t34.5 5l32 -192q-4 0 -40.5 -5.5t-97.5 -12t-141.5 -11.5
t-172.5 -5q-39 0 -78.5 1.5t-80.5 3.5q-127 8 -224.5 20.5t-169.5 27t-122 30t-82 29.5t-49.5 25.5t-24.5 18.5l-6 136q2 3 23 24.5t57.5 53t87 69.5t113.5 73.5t136.5 65t155.5 43.5q55 10 125.5 18t145 15t146 12t128.5 8.5t94 5.5t42 2z" />
    <glyph glyph-name="uni06A9" unicode="&#x6a9;" horiz-adv-x="2059" arabic-form="isolated" 
d="M2136 1460l-762 -319q79 -67 159 -135.5t148 -139.5t118 -146t71 -153.5t6 -161.5t-77 -172q-6 -8 -18.5 -22.5t-34 -32.5t-53 -38.5t-74.5 -41.5q-76 -35 -155 -55t-160 -29.5t-163.5 -11.5t-164.5 1q-180 2 -323 21.5t-252 59.5q-206 81 -280 230q-42 80 -42 174.5
t39 199.5q29 72 57 116.5t33 52.5l158 -117l-23 -37q-9 -17 -20.5 -39t-21.5 -50q-45 -130 -4 -210q50 -99 225 -150.5t457 -52.5q105 -5 189.5 0t150 15.5t114 24.5t81.5 28q62 26 88.5 47t31.5 26l3 3l4 7q35 41 40.5 86.5t-10 93t-49 96.5t-77.5 97t-95 94t-101 88.5
t-95.5 79.5t-79.5 67l25 229l860 359z" />
    <glyph glyph-name="uni06A9.fina" unicode="&#x6a9;" horiz-adv-x="2321" arabic-form="final" 
d="M2320 196q42 0 70 -28t28 -70q0 -41 -28 -69.5t-70 -28.5q-166 0 -302.5 63t-225.5 187q-16 -27 -38 -50t-47.5 -42t-53 -35t-55.5 -29q-209 -94 -549 -94h-92q-107 0 -201 9q-75 5 -145.5 16t-139.5 30q-12 3 -35 10.5t-47 16.5t-45 17t-29 12q-61 31 -106 69
q-32 25 -58.5 58t-49.5 75q-1 1 -1 4q-17 36 -28 78t-13 89t7 98t32 104q31 71 58 116.5t32 53.5l158 -118q-16 -25 -28 -49q-11 -20 -21 -41.5t-15 -35.5q-46 -127 -4 -210q38 -77 154.5 -126t302.5 -68q68 -5 127.5 -7t103.5 -2q102 -4 184.5 1t147.5 15t113.5 23.5
t81.5 26.5q87 33 129 79t48.5 99.5t-16.5 112t-64.5 118.5t-96.5 118t-112 110t-111 96t-94 75l22 206l897 386l75 -182l-792 -334q84 -59 159.5 -126t137.5 -140t108 -149.5t72 -152.5q16 -48 36 -97t49 -95t71 -86t103 -69q79 -37 198 -38h8z" />
    <glyph glyph-name="uni06AF" unicode="&#x6af;" horiz-adv-x="2052" arabic-form="isolated" 
d="M2136 1458l-762 -319q79 -67 159 -135.5t148 -139.5t118 -146t71 -153.5t6 -161.5t-77 -172q-6 -8 -18.5 -22.5t-34 -32.5t-53 -38.5t-74.5 -41.5q-76 -35 -155 -55t-160 -29.5t-163.5 -11.5t-164.5 1q-180 2 -323 21.5t-252 59.5q-206 81 -280 230q-42 80 -42 174.5
t39 199.5q29 72 57 116.5t33 52.5l158 -117l-23 -37q-9 -17 -20.5 -39t-21.5 -50q-45 -130 -4 -210q50 -99 225 -150.5t457 -52.5q105 -5 189.5 0t150 15.5t114 24.5t81.5 28q62 26 88.5 47t31.5 26l3 3l4 7q35 41 40.5 86.5t-10 93t-49 96.5t-77.5 97t-95 94t-101 88.5
t-95.5 79.5t-79.5 67l25 229l860 359zM1997 1767l-804 -340l7 128l750 313z" />
    <glyph glyph-name="uni06AF.init" unicode="&#x6af;" horiz-adv-x="941" arabic-form="initial" 
d="M-104 97q0 42 30 70.5t78 28.5h34q15 0 33.5 -0.5t37.5 0.5q60 0 125 1.5t124.5 12t108 33t76.5 64.5q33 50 38.5 109t-12.5 128q-11 41 -54.5 104.5t-107.5 136t-143 148.5t-161 142l23 205l822 352l77 -182l-716 -301q49 -42 107 -94t115 -115q76 -84 125 -160.5
t76 -145.5t36 -130.5t4 -115.5t-20.5 -100t-36.5 -84q-90 -159 -301 -198q-38 -7 -87 -7l-323 1q-48 0 -78 28t-30 69zM914 1760l-804 -340l7 128l750 313z" />
    <glyph glyph-name="uni06AF.medi" unicode="&#x6af;" horiz-adv-x="1187" arabic-form="medial" 
d="M-98 98q0 20 8 38t21.5 31.5t31.5 21t38 7.5h9h330q40 0 80.5 16t73 43t54 61.5t24.5 70.5q5 57 -14.5 119.5t-55.5 126.5t-84 127t-100.5 119.5t-105.5 104t-98 82.5l26 221l884 381l77 -182l-793 -333q76 -62 133.5 -123t103.5 -123t82.5 -124t70 -124t66.5 -125
t71 -127q29 -48 62 -86.5t71.5 -65.5t85 -42.5t102.5 -16.5h42q42 0 70 -28.5t28 -69.5q0 -42 -28 -70t-70 -28h-8q-72 0 -126.5 9t-106.5 26q-71 26 -131 76t-105 108q-35 -64 -86 -112q-33 -29 -69.5 -49t-76 -32t-80.5 -18t-82 -8h-326q-41 0 -70 28t-29 70zM954 1789
l-804 -340l7 128l750 313z" />
    <glyph glyph-name="uni06AF.fina" unicode="&#x6af;" horiz-adv-x="2309" arabic-form="final" 
d="M2320 196q42 0 70 -28t28 -70q0 -41 -28 -69.5t-70 -28.5q-166 0 -302.5 63t-225.5 187q-16 -27 -38 -50t-47.5 -42t-53 -35t-55.5 -29q-209 -94 -549 -94h-92q-107 0 -201 9q-75 5 -145.5 16t-139.5 30q-12 3 -35 10.5t-47 16.5t-45 17t-29 12q-61 31 -106 69
q-32 25 -58.5 58t-49.5 75q-1 1 -1 4q-17 36 -28 78t-13 89t7 98t32 104q31 71 58 116.5t32 53.5l158 -118q-16 -25 -28 -49q-11 -20 -21 -41.5t-15 -35.5q-46 -127 -4 -210q38 -77 154.5 -126t302.5 -68q68 -5 127.5 -7t103.5 -2q102 -4 184.5 1t147.5 15t113.5 23.5
t81.5 26.5q87 33 129 79t48.5 99.5t-16.5 112t-64.5 118.5t-96.5 118t-112 110t-111 96t-94 75l22 206l897 386l75 -182l-792 -334q84 -59 159.5 -126t137.5 -140t108 -149.5t72 -152.5q16 -48 36 -97t49 -95t71 -86t103 -69q79 -37 198 -38h8zM2047 1794l-873 -380l7 128
l819 353z" />
    <glyph glyph-name="uni06BA" unicode="&#x6ba;" horiz-adv-x="1630" arabic-form="isolated" 
d="M741 -688q-265 0 -433 150q-79 69 -127.5 162t-64.5 204q-10 61 -9 122.5t8 118.5t19 107.5t24 90.5q31 102 67.5 174.5t60.5 107.5l159 -117q-13 -18 -30 -51.5t-34.5 -78t-33.5 -98.5t-26.5 -112.5t-13.5 -118.5t5 -117q4 -26 16 -61t34.5 -72t57 -73.5t84 -66
t115.5 -49t151 -23.5q5 0 4 -0.5t-3 -0.5h-3t4 1q212 9 342 84t176 214q26 86 27.5 173t-12 167t-37 149.5t-46.5 121t-40 81t-18 29.5l166 106q3 -5 25 -42t50 -99.5t56 -146t43 -180.5t11.5 -204t-38.5 -215q-29 -94 -86 -169.5t-141 -130.5q-91 -63 -208 -96t-262 -40
q-10 0 -20 -0.5t-19 -0.5z" />
    <glyph glyph-name="uni06BA.fina" unicode="&#x6ba;" horiz-adv-x="1709" arabic-form="final" 
d="M1707 0q-133 0 -239 62q4 -76 -4.5 -154.5t-33.5 -159.5q-29 -92 -86 -168.5t-141 -130.5q-92 -63 -208 -95.5t-261 -40.5h-41q-131 0 -239 38t-193 110q-77 69 -126.5 163t-65.5 204q-8 61 -7.5 122t7.5 118t18 108t24 92q32 102 67 173.5t60 107.5l160 -116
q-13 -18 -30.5 -51.5t-35 -78.5t-33.5 -98.5t-26.5 -112t-13 -119t5.5 -117.5q4 -26 14 -62t29 -74.5t49.5 -76.5t76.5 -67.5t109.5 -48t148.5 -18.5h15h9.5t9.5 1q211 11 341 85.5t174 212.5q27 87 28.5 173t-11.5 164.5t-36 146.5t-46 121q-11 20 -20 41t-20 43
q-8 16 -14 24t-6 10l167 106q3 -4 22.5 -40t48.5 -96q55 -104 103.5 -165t92.5 -92t83 -39.5t74 -8.5q42 0 70.5 -28t28.5 -70q0 -41 -28.5 -69.5t-70.5 -28.5z" />
    <glyph glyph-name="uni062F.fina" unicode="&#x62f;" horiz-adv-x="1253" arabic-form="final" 
d="M530 0q-117 0 -218.5 49t-185.5 136l113 159q121 -111 235.5 -135t222.5 19q51 20 83.5 43.5t49.5 40.5l-316 760l182 76q32 -78 77 -187q38 -94 95 -231.5t134 -320.5q20 -48 35.5 -87.5t39.5 -67t64 -43t108 -15.5q41 0 70 -28t29 -70t-29 -70t-70 -28
q-65 0 -115.5 10.5t-89 28.5t-67.5 42.5t-50 51.5q-30 -22 -68.5 -46t-88.5 -44q-28 -11 -54.5 -19t-55 -13.5t-60.5 -8t-70 -2.5z" />
    <glyph glyph-name="uni06C1.fina" unicode="&#x6c1;" horiz-adv-x="1252" arabic-form="final" 
d="M949 58q-48 27 -110 65t-126.5 73t-125.5 59.5t-108 24.5q-42 0 -78.5 -18t-68 -45t-56.5 -59t-42.5 -59t-27 -45.5t-9.5 -19.5l-181 81q1 1 8.5 17t22 40.5t35 55t47.5 62.5q78 93 166 140.5t184 47.5q55 0 118 -21t128.5 -52t133 -68t132 -68t124.5 -52t111 -21h38
l-1 -196q-81 0 -139.5 9t-97.5 20q-46 12 -77 29z" />
    <glyph glyph-name="uni0686" unicode="&#x686;" horiz-adv-x="1789" arabic-form="isolated" 
d="M926 -718q-113 -9 -217.5 7.5t-195.5 56t-164.5 101t-123.5 142.5t-73 180.5t-12 214.5q10 102 48 192.5t107 171.5q60 69 134 125t164 98q123 57 255 89.5t256 47.5q-28 14 -54.5 26.5t-54.5 26.5q-106 52 -191 90.5t-145 46.5q-139 19 -250 -99q-23 -24 -38.5 -47
t-27.5 -43q-7 -11 -12.5 -21.5t-10.5 -20.5l-182 76q3 4 11 22t23 44t38 58.5t55 65.5q88 97 195 137t226 24q84 -11 180 -53.5t218 -101.5q109 -55 231.5 -112t267.5 -105l-36 -192q-2 0 -43 1t-108.5 -0.5t-155 -8t-183.5 -21.5t-194 -41t-186 -67q-24 -11 -56.5 -29.5
t-68.5 -45t-72 -61.5t-66 -78.5t-51 -96.5t-26 -115q-8 -86 13 -157.5t64 -128t105 -97.5t136.5 -65.5t158.5 -32t171 2.5q50 4 103.5 16t107.5 32.5t107 49.5t102 67l115 -161q-75 -54 -145.5 -91t-142 -61.5t-147 -38t-159.5 -20.5zM1090.57 239.823l155.8 -155.82
l-157.724 -157.744l-155.801 155.82zM700.104 238.861l155.8 -156.782l-157.724 -157.744l-155.8 156.782zM900.144 -54.5039l142.336 -142.354l-143.298 -143.316l-142.336 142.354z" />
    <glyph glyph-name="uni0686.fina" unicode="&#x686;" horiz-adv-x="1703" arabic-form="final" 
d="M1069.29 103.787l151.381 -151.519l-153.25 -153.39l-151.38 151.52zM689.909 102.853l151.381 -152.454l-153.25 -153.391l-151.381 152.455zM884.274 -182.415l138.298 -138.425l-139.232 -139.36l-138.299 138.425zM912 -791q-142 0 -270 40.5t-228.5 113.5t-167 173
t-86.5 218.5t13.5 252t132.5 271.5q120 140 300 224q123 57 254 89t257 47l-108 52q-105 53 -192 91.5t-145 46.5q-139 19 -251 -99q-33 -36 -53.5 -69t-29.5 -51l-5 -12l-184 76q2 4 10.5 22t24.5 44.5t39 58.5t54 65q88 97 194.5 137t226.5 24q84 -11 180.5 -53.5
t217.5 -102.5q109 -54 232 -111t268 -105l-38 -192q-2 0 -18.5 0.5t-46 1t-70 -0.5t-89.5 -4q-2 -11 -2.5 -30.5t2.5 -42.5t12 -48t27 -47q24 -29 54.5 -47t70 -28.5t89.5 -14t113 -3.5q20 0 38 -8t31.5 -21.5t21.5 -31.5t8 -39q0 -41 -29 -68.5t-70 -27.5
q-92 0 -166.5 10.5t-133.5 31.5t-104.5 52.5t-79.5 74.5q-36 48 -57 106.5t-24 125.5q-3 21 0 38q-112 -14 -227 -41t-220 -75q-24 -12 -56.5 -30.5t-68.5 -45t-71.5 -61t-65.5 -78t-50.5 -96t-25.5 -115.5q-6 -96 22 -175t81.5 -139t127.5 -101.5t159 -63t177 -23t181.5 18
t171.5 60t148 103.5l129 -152q-71 -63 -149 -104.5t-159.5 -66t-164 -35t-162.5 -10.5z" />
    <glyph glyph-name="uni0623" unicode="&#x623;" horiz-adv-x="525" arabic-form="isolated" 
d="M397 -7l-197 11q15 227 18.5 429.5t-0.5 374t-12.5 280t-17.5 204.5t-15.5 148.5t-6.5 53.5l196 30q2 -6 15 -120.5t22 -238t13.5 -247t4.5 -268t-3.5 -310.5t-16.5 -347zM388 2004q-12 3 -27 6q-13 2 -29.5 4.5t-35.5 2.5q-15 0 -30.5 -2.5t-31.5 -9.5v2
q-32 -14 -51.5 -42.5t-19.5 -61.5q0 -17 8 -36l-1 1q14 -35 49.5 -58.5t78.5 -23.5q11 0 21 1t21 6q26 8 51 21t45 25q23 14 43 29l59 -78q-39 -29 -98 -62t-144 -80l-227 -126l-48 87l179 100q-41 17 -72.5 49t-48.5 71q-14 34 -14 74q0 31 9.5 60.5t27 55t42 45.5t54.5 32
q47 19 98 19q23 0 44 -3t38 -7q19 -4 38 -9z" />
    <glyph glyph-name="uni0623.fina" unicode="&#x623;" horiz-adv-x="673" arabic-form="final" 
d="M665 0q-110 0 -188.5 26t-132.5 80q-33 33 -50.5 71t-26 75t-9.5 70.5t-1 57.5v19q0 1 1 36.5t1.5 96t0.5 139.5t-1 167q0 86 -2 179t-6 180t-11 160.5t-16 120.5l196 36q9 -51 16 -125t11.5 -161t6.5 -181.5t2 -184.5q1 -88 1 -169v-144t-0.5 -104t-0.5 -49v-18
q-1 -44 3 -77.5t27 -55.5q22 -23 64.5 -35.5t105.5 -13.5h9q20 0 38 -7.5t31.5 -21t21.5 -31.5t8 -38q0 -42 -29 -70t-70 -28zM380 1984q-12 3 -27 6q-13 2 -29.5 4.5t-35.5 2.5q-15 0 -30.5 -2.5t-31.5 -9.5v2q-32 -14 -51.5 -42.5t-19.5 -61.5q0 -17 8 -36l-1 1
q14 -35 49.5 -58.5t78.5 -23.5q11 0 21 1t21 6q26 8 51 21t45 25q23 14 43 29l59 -78q-39 -29 -98 -62t-144 -80l-227 -126l-48 87l179 100q-41 17 -72.5 49t-48.5 71q-14 34 -14 74q0 31 9.5 60.5t27 55t42 45.5t54.5 32q47 19 98 19q23 0 44 -3t38 -7q19 -4 38 -9z" />
    <glyph glyph-name="uni0625" unicode="&#x625;" horiz-adv-x="525" arabic-form="isolated" 
d="M377 -7l-197 11q15 227 18.5 429.5t-0.5 374t-12.5 280t-17.5 204.5t-15.5 148.5t-6.5 53.5l196 30q2 -6 15 -120.5t22 -238t13.5 -247t4.5 -268t-3.5 -310.5t-16.5 -347zM378 -223q-12 3 -27 6q-13 2 -29.5 4.5t-35.5 2.5q-15 0 -30.5 -2.5t-31.5 -9.5v2
q-32 -14 -51.5 -42.5t-19.5 -61.5q0 -17 8 -36l-1 1q14 -35 49.5 -58.5t78.5 -23.5q11 0 21 1t21 6q26 8 51 21t45 25q23 14 43 29l59 -78q-39 -29 -98 -62t-144 -80l-227 -126l-48 87l179 100q-41 17 -72.5 49t-48.5 71q-14 34 -14 74q0 31 9.5 60.5t27 55t42 45.5t54.5 32
q47 19 98 19q23 0 44 -3t38 -7q19 -4 38 -9z" />
    <glyph glyph-name="uni0625.fina" unicode="&#x625;" horiz-adv-x="673" arabic-form="final" 
d="M665 0q-110 0 -188.5 26t-132.5 80q-33 33 -50.5 71t-26 75t-9.5 70.5t-1 57.5v19q0 1 1 36.5t1.5 96t0.5 139.5t-1 167q0 86 -2 179t-6 180t-11 160.5t-16 120.5l196 36q9 -51 16 -125t11.5 -161t6.5 -181.5t2 -184.5q1 -88 1 -169v-144t-0.5 -104t-0.5 -49v-18
q-1 -44 3 -77.5t27 -55.5q22 -23 64.5 -35.5t105.5 -13.5h9q20 0 38 -7.5t31.5 -21t21.5 -31.5t8 -38q0 -42 -29 -70t-70 -28zM494 -201q-12 3 -27 6q-13 2 -29.5 4.5t-35.5 2.5q-15 0 -30.5 -2.5t-31.5 -9.5v2q-32 -14 -51.5 -42.5t-19.5 -61.5q0 -17 8 -36l-1 1
q14 -35 49.5 -58.5t78.5 -23.5q11 0 21 1t21 6q26 8 51 21t45 25q23 14 43 29l59 -78q-39 -29 -98 -62t-144 -80l-227 -126l-48 87l179 100q-41 17 -72.5 49t-48.5 71q-14 34 -14 74q0 31 9.5 60.5t27 55t42 45.5t54.5 32q47 19 98 19q23 0 44 -3t38 -7q19 -4 38 -9z" />
    <glyph glyph-name="uni0622" unicode="&#x622;" horiz-adv-x="580" arabic-form="isolated" 
d="M470 -7l-197 11q15 227 18.5 429.5t-0.5 374t-12.5 280t-17.5 204.5t-15.5 148.5t-6.5 53.5l196 30q2 -6 15 -120.5t22 -238t13.5 -247t4.5 -268t-3.5 -310.5t-16.5 -347zM1 1657q1 2 5 13.5t10.5 27t14 33t15.5 31.5q32 51 74 81.5t87 38.5q10 2 22 2.5t21 0.5
q44 0 79.5 -11t66.5 -24q27 -11 53.5 -19t57.5 -9q24 -1 47 11t42 28t33 32t20 24l114 -74q-1 -2 -10 -15t-25.5 -31.5t-39.5 -39t-51.5 -37.5t-62.5 -28t-72 -10q-40 1 -75 11t-65 21l-16 6q-32 12 -59 20t-58 3q-18 -2 -34 -17.5t-28.5 -36t-21 -41t-12.5 -32.5z" />
    <glyph glyph-name="uni0622.fina" unicode="&#x622;" horiz-adv-x="684" arabic-form="final" 
d="M665 0q-110 0 -188.5 26t-132.5 80q-33 33 -50.5 71t-26 75t-9.5 70.5t-1 57.5v19q0 1 1 36.5t1.5 96t0.5 139.5t-1 167q0 86 -2 179t-6 180t-11 160.5t-16 120.5l196 36q9 -51 16 -125t11.5 -161t6.5 -181.5t2 -184.5q1 -88 1 -169v-144t-0.5 -104t-0.5 -49v-18
q-1 -44 3 -77.5t27 -55.5q22 -23 64.5 -35.5t105.5 -13.5h9q20 0 38 -7.5t31.5 -21t21.5 -31.5t8 -38q0 -42 -29 -70t-70 -28zM-5 1631q1 2 5 13.5t10.5 27t14 33t15.5 31.5q32 51 74 81.5t87 38.5q10 2 22 2.5t21 0.5q44 0 79.5 -11t66.5 -24q27 -11 53.5 -19t57.5 -9
q24 -1 47 11t42 28t33 32t20 24l114 -74q-1 -2 -10 -15t-25.5 -31.5t-39.5 -39t-51.5 -37.5t-62.5 -28t-72 -10q-40 1 -75 11t-65 21l-16 6q-32 12 -59 20t-58 3q-18 -2 -34 -17.5t-28.5 -36t-21 -41t-12.5 -32.5z" />
    <glyph glyph-name="uni0671" unicode="&#x671;" horiz-adv-x="573" arabic-form="isolated" 
d="M393 -7l-197 11q15 227 18.5 429.5t-0.5 374t-12.5 280t-17.5 204.5t-15.5 148.5t-6.5 53.5l196 30q2 -6 15 -120.5t22 -238t13.5 -247t4.5 -268t-3.5 -310.5t-16.5 -347zM258 1785q27 -3 61 -3.5t68.5 3.5t66.5 13.5t53 27.5q26 23 29 57q0 14 -6.5 25t-11.5 16
q-20 21 -42 23.5t-40 -0.5q-27 -5 -53.5 -18.5t-49.5 -36.5q-29 -29 -48 -59.5t-27 -47.5zM2 1748l-18 68q26 13 52 22q22 8 45.5 13t40.5 1t30.5 -10.5t23.5 -14.5q11 -9 19 -19q10 19 33 57t61 75q29 28 64 46.5t71 23.5q42 9 78.5 -1.5t62.5 -38.5q19 -20 28.5 -43
t6.5 -49q-2 -62 -53 -104q-22 -18 -49.5 -29t-57 -17.5t-60 -9t-57.5 -2.5q-29 0 -52 2t-33 3q-25 3 -49 14q-14 6 -26.5 15.5t-26.5 28.5q-16 12 -39 9t-44 -12q-25 -11 -51 -28z" />
    <glyph glyph-name="uni0671.fina" unicode="&#x671;" horiz-adv-x="678" arabic-form="final" 
d="M665 0q-110 0 -188.5 26t-132.5 80q-33 33 -50.5 71t-26 75t-9.5 70.5t-1 57.5v19q0 1 1 36.5t1.5 96t0.5 139.5t-1 167q0 86 -2 179t-6 180t-11 160.5t-16 120.5l196 36q9 -51 16 -125t11.5 -161t6.5 -181.5t2 -184.5q1 -88 1 -169v-144t-0.5 -104t-0.5 -49v-18
q-1 -44 3 -77.5t27 -55.5q22 -23 64.5 -35.5t105.5 -13.5h9q20 0 38 -7.5t31.5 -21t21.5 -31.5t8 -38q0 -42 -29 -70t-70 -28zM271 1789q27 -3 61 -3.5t68.5 3.5t66.5 13.5t53 27.5q26 23 29 57q0 14 -6.5 25t-11.5 16q-20 21 -42 23.5t-40 -0.5q-27 -5 -53.5 -18.5
t-49.5 -36.5q-29 -29 -48 -59.5t-27 -47.5zM15 1752l-18 68q26 13 52 22q22 8 45.5 13t40.5 1t30.5 -10.5t23.5 -14.5q11 -9 19 -19q10 19 33 57t61 75q29 28 64 46.5t71 23.5q42 9 78.5 -1.5t62.5 -38.5q19 -20 28.5 -43t6.5 -49q-2 -62 -53 -104q-22 -18 -49.5 -29
t-57 -17.5t-60 -9t-57.5 -2.5q-29 0 -52 2t-33 3q-25 3 -49 14q-14 6 -26.5 15.5t-26.5 28.5q-16 12 -39 9t-44 -12q-25 -11 -51 -28z" />
    <glyph glyph-name="uni0628" unicode="&#x628;" horiz-adv-x="1975" arabic-form="isolated" 
d="M998 0q-359 3 -575 83q-206 80 -280 229q-42 81 -42 176t39 198q14 36 29 66t27.5 52t21.5 35.5l11 16.5l159 -118q-6 -8 -12 -17t-11 -19q-10 -17 -21 -39.5t-21 -50.5q-46 -127 -4 -210q49 -98 224 -150.5t455 -53.5q80 0 175 6.5t193.5 23.5t196 46.5t181.5 76.5
q-4 45 -19 94.5t-36 97.5t-44 91.5t-43 77t-33 54t-14 21.5l166 108q1 -2 13 -20t29 -48t38.5 -70t42 -86.5t39 -97.5t30.5 -102t15.5 -91t-6 -73.5t-35 -63t-72.5 -59.5q-45 -28 -105 -52.5t-129.5 -45.5t-144.5 -37t-151 -27.5t-149 -17t-138 -4.5zM1174 -361l-163 -163
l-164 164l163 163z" />
    <glyph glyph-name="uni0628.init" unicode="&#x628;" horiz-adv-x="664" arabic-form="initial" 
d="M-105 98q0 42 28.5 70t69.5 28h103q53 -2 102 0.5t90 14.5t72.5 36.5t51.5 66.5q20 43 11.5 122.5t-40.5 185.5q-11 32 -25.5 69.5t-28.5 69.5q-16 38 -33 75l178 88q0 -1 9.5 -20.5t23.5 -52.5t31 -76.5t32 -92.5q93 -287 23 -448q-71 -161 -252 -212
q-54 -16 -105.5 -19t-96.5 -3h-137h-9q-41 0 -69.5 28t-28.5 70zM457 -376l-163 -163l-164 164l163 163z" />
    <glyph glyph-name="uni0628.medi" unicode="&#x628;" horiz-adv-x="718" arabic-form="medial" 
d="M-94 98q0 41 28 69.5t70 28.5h17q168 0 244 60.5t76 179.5q0 28 -3 64t-9 75t-14.5 79.5t-19.5 78.5l188 53q13 -45 23 -93t17 -93.5t10.5 -87.5t3.5 -76v-5q0 -37 7 -78t25.5 -76t51 -58t83.5 -23q20 0 38 -7.5t31.5 -21t21.5 -31.5t8 -38q0 -21 -8 -38.5t-21.5 -31
t-31 -21t-37.5 -7.5q-50 0 -91.5 9t-75 25.5t-60 39.5t-47.5 50q-63 -62 -163.5 -93t-246.5 -31h-17q-42 0 -70 28t-28 70zM552 -361l-163 -163l-164 164l163 163z" />
    <glyph glyph-name="uni0628.fina" unicode="&#x628;" horiz-adv-x="2245" arabic-form="final" 
d="M1843 164q-39 46 -62 109q-264 -276 -833 -276q-304 2 -503.5 72.5t-289.5 222.5q-29 49 -44.5 101t-20 103.5t0 101.5t16.5 95q12 47 24.5 85t23.5 65.5t19 43.5t10 19l173 -95q0 -1 -9 -20t-20 -50t-21.5 -72t-13 -86t5.5 -92t33 -89q60 -102 215.5 -153.5t400.5 -52.5
q221 0 376 38.5t258 122.5q46 36 79.5 79t57 89t39.5 93t29 92l190 -52q-5 -20 -11 -44.5t-12 -53.5q-12 -59 -11 -100q2 -43 13 -90t42 -84q71 -89 238 -89q42 0 70.5 -28.5t28.5 -70.5t-28.5 -70t-70.5 -28h-8q-260 3 -385 164zM1154 -362l-163 -163l-164 164l163 163z
" />
    <glyph glyph-name="uni067E" unicode="&#x67e;" horiz-adv-x="1964" arabic-form="isolated" 
d="M991 0q-359 3 -575 83q-206 80 -280 229q-42 81 -42 176t39 198q14 36 29 66t27.5 52t21.5 35.5l11 16.5l159 -118q-6 -8 -12 -17t-11 -19q-10 -17 -21 -39.5t-21 -50.5q-46 -127 -4 -210q49 -98 224 -150.5t455 -53.5q80 0 175 6.5t193.5 23.5t196 46.5t181.5 76.5
q-4 45 -19 94.5t-36 97.5t-44 91.5t-43 77t-33 54t-14 21.5l166 108q1 -2 13 -20t29 -48t38.5 -70t42 -86.5t39 -97.5t30.5 -102t15.5 -91t-6 -73.5t-35 -63t-72.5 -59.5q-45 -28 -105 -52.5t-129.5 -45.5t-144.5 -37t-151 -27.5t-149 -17t-138 -4.5zM1211 -146l162 -162
l-164 -164l-162 162zM805 -147l162 -163l-164 -164l-162 163zM1013 -452l148 -148l-149 -149l-148 148z" />
    <glyph glyph-name="uni067E.fina" unicode="&#x67e;" horiz-adv-x="2247" arabic-form="final" 
d="M1843 164q-39 46 -62 109q-264 -276 -833 -276q-304 2 -503.5 72.5t-289.5 222.5q-29 49 -44.5 101t-20 103.5t0 101.5t16.5 95q12 47 24.5 85t23.5 65.5t19 43.5t10 19l173 -95q0 -1 -9 -20t-20 -50t-21.5 -72t-13 -86t5.5 -92t33 -89q60 -102 215.5 -153.5t400.5 -52.5
q221 0 376 38.5t258 122.5q46 36 79.5 79t57 89t39.5 93t29 92l190 -52q-5 -20 -11 -44.5t-12 -53.5q-12 -59 -11 -100q2 -43 13 -90t42 -84q71 -89 238 -89q42 0 70.5 -28.5t28.5 -70.5t-28.5 -70t-70.5 -28h-8q-260 3 -385 164zM1221 -135l162 -162l-164 -164l-162 162z
M815 -136l162 -163l-164 -164l-162 163zM1023 -441l148 -148l-149 -149l-148 148z" />
    <glyph glyph-name="uni067E.init" unicode="&#x67e;" horiz-adv-x="859" arabic-form="initial" 
d="M-98 98q0 42 28.5 70t69.5 28h111q35 -1 76 -0.5t83 4.5t82.5 11.5t74.5 21t60 33.5t39 48q20 43 11.5 122.5t-40.5 185.5q-11 32 -25.5 69.5t-28.5 69.5q-16 38 -33 75l178 88q0 -1 9.5 -20.5t23.5 -52.5t31 -76.5t32 -92.5q93 -287 23 -448q-71 -161 -252 -212
q-27 -8 -69 -12.5t-86 -6.5t-84 -2.5t-62 -0.5h-145h-9q-41 0 -69.5 28t-28.5 70zM575 -186l162 -162l-164 -164l-162 162zM169 -187l162 -163l-164 -164l-162 163zM377 -492l148 -148l-149 -149l-148 148z" />
    <glyph glyph-name="uni067E.medi" unicode="&#x67e;" horiz-adv-x="859" arabic-form="medial" 
d="M-105 98q0 42 28 70.5t70 28.5h76q84 0 161 10t135.5 37t92.5 73.5t31 119.5q-1 28 -4.5 63.5t-9 74.5t-13.5 79.5t-19 79.5l187 53q13 -46 23.5 -93.5t17.5 -93t10.5 -87.5t3.5 -76v-6q0 -37 6.5 -78t25 -76t51 -58t83.5 -23q42 0 71 -28t29 -70q0 -21 -8 -38.5
t-21.5 -31t-31 -21t-37.5 -7.5q-101 0 -167 36.5t-108 91.5q-36 -35 -93 -59.5t-125.5 -39.5t-143.5 -22t-147 -7h-76q-42 0 -70 28t-28 70zM566 -140l162 -162l-164 -164l-162 162zM160 -141l162 -163l-164 -164l-162 163zM368 -446l148 -148l-149 -149l-148 148z" />
    <glyph glyph-name="uni062A" unicode="&#x62a;" horiz-adv-x="1948" arabic-form="isolated" 
d="M978 0q-359 3 -575 83q-206 80 -280 229q-42 81 -42 176t39 198q14 36 29 66t27.5 52t21.5 35.5l11 16.5l159 -118q-6 -8 -12 -17t-11 -19q-10 -17 -21 -39.5t-21 -50.5q-46 -127 -4 -210q49 -98 224 -150.5t455 -53.5q80 0 175 6.5t193.5 23.5t196 46.5t181.5 76.5
q-4 45 -19 94.5t-36 97.5t-44 91.5t-43 77t-33 54t-14 21.5l166 108q1 -2 13 -20t29 -48t38.5 -70t42 -86.5t39 -97.5t30.5 -102t15.5 -91t-6 -73.5t-35 -63t-72.5 -59.5q-45 -28 -105 -52.5t-129.5 -45.5t-144.5 -37t-151 -27.5t-149 -17t-138 -4.5zM981 989l-162 -162
l-164 163l162 163zM1359 988l-162 -163l-164 164l162 162z" />
    <glyph glyph-name="uni062A.init" unicode="&#x62a;" horiz-adv-x="788" arabic-form="initial" 
d="M398 1246l-162 -162l-164 163l162 163zM776 1245l-162 -163l-164 164l162 162zM-135 98q0 42 28.5 70t69.5 28h111q35 -1 76 -0.5t83 4.5t82.5 11.5t74.5 21t60 33.5t39 48q20 43 11.5 122.5t-40.5 185.5q-11 32 -25.5 69.5t-28.5 69.5q-16 38 -33 75l178 88
q0 -1 9.5 -20.5t23.5 -52.5t31 -76.5t32 -92.5q93 -287 23 -448q-71 -161 -252 -212q-27 -8 -69 -12.5t-86 -6.5t-84 -2.5t-62 -0.5h-145h-9q-41 0 -69.5 28t-28.5 70z" />
    <glyph glyph-name="uni062A.medi" unicode="&#x62a;" horiz-adv-x="870" arabic-form="medial" 
d="M-105 98q0 42 28 70.5t70 28.5h76q84 0 161 10t135.5 37t92.5 73.5t31 119.5q-1 28 -4.5 63.5t-9 74.5t-13.5 79.5t-19 79.5l187 53q13 -46 23.5 -93.5t17.5 -93t10.5 -87.5t3.5 -76v-6q0 -37 6.5 -78t25 -76t51 -58t83.5 -23q42 0 71 -28t29 -70q0 -21 -8 -38.5
t-21.5 -31t-31 -21t-37.5 -7.5q-101 0 -167 36.5t-108 91.5q-36 -35 -93 -59.5t-125.5 -39.5t-143.5 -22t-147 -7h-76q-42 0 -70 28t-28 70zM419 1088l-162 -162l-164 163l162 163zM797 1087l-162 -163l-164 164l162 162z" />
    <glyph glyph-name="uni062A.fina" unicode="&#x62a;" horiz-adv-x="2253" arabic-form="final" 
d="M1843 164q-39 46 -62 109q-264 -276 -833 -276q-304 2 -503.5 72.5t-289.5 222.5q-29 49 -44.5 101t-20 103.5t0 101.5t16.5 95q12 47 24.5 85t23.5 65.5t19 43.5t10 19l173 -95q0 -1 -9 -20t-20 -50t-21.5 -72t-13 -86t5.5 -92t33 -89q60 -102 215.5 -153.5t400.5 -52.5
q221 0 376 38.5t258 122.5q46 36 79.5 79t57 89t39.5 93t29 92l190 -52q-5 -20 -11 -44.5t-12 -53.5q-12 -59 -11 -100q2 -43 13 -90t42 -84q71 -89 238 -89q42 0 70.5 -28.5t28.5 -70.5t-28.5 -70t-70.5 -28h-8q-260 3 -385 164zM1002 984l-162 -162l-164 163l162 163z
M1380 983l-162 -163l-164 164l162 162z" />
    <glyph glyph-name="uni062B" unicode="&#x62b;" horiz-adv-x="1964" arabic-form="isolated" 
d="M985 0q-359 3 -575 83q-206 80 -280 229q-42 81 -42 176t39 198q14 36 29 66t27.5 52t21.5 35.5l11 16.5l159 -118q-6 -8 -12 -17t-11 -19q-10 -17 -21 -39.5t-21 -50.5q-46 -127 -4 -210q49 -98 224 -150.5t455 -53.5q80 0 175 6.5t193.5 23.5t196 46.5t181.5 76.5
q-4 45 -19 94.5t-36 97.5t-44 91.5t-43 77t-33 54t-14 21.5l166 108q1 -2 13 -20t29 -48t38.5 -70t42 -86.5t39 -97.5t30.5 -102t15.5 -91t-6 -73.5t-35 -63t-72.5 -59.5q-45 -28 -105 -52.5t-129.5 -45.5t-144.5 -37t-151 -27.5t-149 -17t-138 -4.5zM1042 968l162 162
l164 -164l-162 -162zM636 969l162 163l164 -164l-162 -163zM859 1259l148 148l149 -149l-148 -148z" />
    <glyph glyph-name="uni062B.init" unicode="&#x62b;" horiz-adv-x="799" arabic-form="initial" 
d="M494 1242l162 162l164 -164l-162 -162zM88 1243l162 163l164 -164l-162 -163zM311 1533l148 148l149 -149l-148 -148zM-98 98q0 42 28.5 70t69.5 28h111q35 -1 76 -0.5t83 4.5t82.5 11.5t74.5 21t60 33.5t39 48q20 43 11.5 122.5t-40.5 185.5q-11 32 -25.5 69.5
t-28.5 69.5q-16 38 -33 75l178 88q0 -1 9.5 -20.5t23.5 -52.5t31 -76.5t32 -92.5q93 -287 23 -448q-71 -161 -252 -212q-27 -8 -69 -12.5t-86 -6.5t-84 -2.5t-62 -0.5h-145h-9q-41 0 -69.5 28t-28.5 70z" />
    <glyph glyph-name="uni062B.medi" unicode="&#x62b;" horiz-adv-x="864" arabic-form="medial" 
d="M-105 98q0 42 28 70.5t70 28.5h76q84 0 161 10t135.5 37t92.5 73.5t31 119.5q-1 28 -4.5 63.5t-9 74.5t-13.5 79.5t-19 79.5l187 53q13 -46 23.5 -93.5t17.5 -93t10.5 -87.5t3.5 -76v-6q0 -37 6.5 -78t25 -76t51 -58t83.5 -23q42 0 71 -28t29 -70q0 -21 -8 -38.5
t-21.5 -31t-31 -21t-37.5 -7.5q-101 0 -167 36.5t-108 91.5q-36 -35 -93 -59.5t-125.5 -39.5t-143.5 -22t-147 -7h-76q-42 0 -70 28t-28 70zM455 1092l162 162l164 -164l-162 -162zM49 1093l162 163l164 -164l-162 -163zM272 1383l148 148l149 -149l-148 -148z" />
    <glyph glyph-name="uni062B.fina" unicode="&#x62b;" horiz-adv-x="2233" arabic-form="final" 
d="M1843 164q-39 46 -62 109q-264 -276 -833 -276q-304 2 -503.5 72.5t-289.5 222.5q-29 49 -44.5 101t-20 103.5t0 101.5t16.5 95q12 47 24.5 85t23.5 65.5t19 43.5t10 19l173 -95q0 -1 -9 -20t-20 -50t-21.5 -72t-13 -86t5.5 -92t33 -89q60 -102 215.5 -153.5t400.5 -52.5
q221 0 376 38.5t258 122.5q46 36 79.5 79t57 89t39.5 93t29 92l190 -52q-5 -20 -11 -44.5t-12 -53.5q-12 -59 -11 -100q2 -43 13 -90t42 -84q71 -89 238 -89q42 0 70.5 -28.5t28.5 -70.5t-28.5 -70t-70.5 -28h-8q-260 3 -385 164zM1090 968l162 162l164 -164l-162 -162z
M684 969l162 163l164 -164l-162 -163zM907 1259l148 148l149 -149l-148 -148z" />
    <glyph glyph-name="uni0679" unicode="&#x679;" horiz-adv-x="1970" arabic-form="isolated" 
d="M992 0q-359 3 -575 83q-206 80 -280 229q-42 81 -42 176t39 198q14 36 29 66t27.5 52t21.5 35.5l11 16.5l159 -118q-6 -8 -12 -17t-11 -19q-10 -17 -21 -39.5t-21 -50.5q-46 -127 -4 -210q49 -98 224 -150.5t455 -53.5q80 0 175 6.5t193.5 23.5t196 46.5t181.5 76.5
q-4 45 -19 94.5t-36 97.5t-44 91.5t-43 77t-33 54t-14 21.5l166 108q1 -2 13 -20t29 -48t38.5 -70t42 -86.5t39 -97.5t30.5 -102t15.5 -91t-6 -73.5t-35 -63t-72.5 -59.5q-45 -28 -105 -52.5t-129.5 -45.5t-144.5 -37t-151 -27.5t-149 -17t-138 -4.5zM982 836
q-15 0 -28.5 0.5t-25.5 1.5h-3q-67 3 -133.5 17.5t-138.5 42.5l32 79q29 -11 56 -19.5t54 -15.5q9 13 22.5 31t30.5 41l3 4q6 37 8.5 66t3 57.5t-1.5 60.5t-5 75q-4 46 -7.5 85.5t-7.5 68.5q-4 34 -8 62l84 16l3 -24t6.5 -57.5t7.5 -71t6 -64.5q3 -36 4 -52t2 -28.5t1 -31
t1 -58.5q103 97 197 112q31 5 66 -1.5t64 -23.5t48.5 -45t21.5 -65q2 -23 -3 -46t-14 -43t-20.5 -37t-23.5 -29l-1 -2q-38 -35 -77.5 -55.5t-78.5 -32t-75.5 -15t-69.5 -3.5zM889 926q21 -3 40 -3h2q31 -1 67 -1t74 7t76.5 24t75.5 50q27 24 33.5 52.5t-3.5 51t-34.5 36
t-60.5 7.5q-44 -7 -96 -43t-109 -100q-11 -12 -20 -23l-18 -22z" />
    <glyph glyph-name="uni0679.init" unicode="&#x679;" horiz-adv-x="774" arabic-form="initial" 
d="M-103 98q0 42 28.5 70t69.5 28h103q53 -2 102 0.5t90 14.5t72.5 36.5t51.5 66.5q20 43 11.5 122.5t-40.5 185.5q-11 32 -25.5 69.5t-28.5 69.5q-16 38 -33 75l178 88q0 -1 9.5 -20.5t23.5 -52.5t31 -76.5t32 -92.5q93 -287 23 -448q-71 -161 -252 -212
q-54 -16 -105.5 -19t-96.5 -3h-137h-9q-41 0 -69.5 28t-28.5 70zM333 1095q-15 0 -28.5 0.5t-25.5 1.5h-3q-67 3 -133.5 17.5t-138.5 42.5l32 79q29 -11 56 -19.5t54 -15.5q9 13 22.5 31t30.5 41l3 4q6 37 8.5 66t3 57.5t-1.5 60.5t-5 75q-4 46 -7.5 85.5t-7.5 68.5
q-4 34 -8 62l84 16l3 -24t6.5 -57.5t7.5 -71t6 -64.5q3 -36 4 -52t2 -28.5t1 -31t1 -58.5q103 97 197 112q31 5 66 -1.5t64 -23.5t48.5 -45t21.5 -65q2 -23 -3 -46t-14 -43t-20.5 -37t-23.5 -29l-1 -2q-38 -35 -77.5 -55.5t-78.5 -32t-75.5 -15t-69.5 -3.5zM240 1185
q21 -3 40 -3h2q31 -1 67 -1t74 7t76.5 24t75.5 50q27 24 33.5 52.5t-3.5 51t-34.5 36t-60.5 7.5q-44 -7 -96 -43t-109 -100q-11 -12 -20 -23l-18 -22z" />
    <glyph glyph-name="uni0679.medi" unicode="&#x679;" horiz-adv-x="859" arabic-form="medial" 
d="M-105 98q0 42 28 70.5t70 28.5h76q84 0 161 10t135.5 37t92.5 73.5t31 119.5q-1 28 -4.5 63.5t-9 74.5t-13.5 79.5t-19 79.5l187 53q13 -46 23.5 -93.5t17.5 -93t10.5 -87.5t3.5 -76v-6q0 -37 6.5 -78t25 -76t51 -58t83.5 -23q42 0 71 -28t29 -70q0 -21 -8 -38.5
t-21.5 -31t-31 -21t-37.5 -7.5q-101 0 -167 36.5t-108 91.5q-36 -35 -93 -59.5t-125.5 -39.5t-143.5 -22t-147 -7h-76q-42 0 -70 28t-28 70zM394 985q-15 0 -28.5 0.5t-25.5 1.5h-3q-67 3 -133.5 17.5t-138.5 42.5l32 79q29 -11 56 -19.5t54 -15.5q9 13 22.5 31t30.5 41l3 4
q6 37 8.5 66t3 57.5t-1.5 60.5t-5 75q-4 46 -7.5 85.5t-7.5 68.5q-4 34 -8 62l84 16l3 -24t6.5 -57.5t7.5 -71t6 -64.5q3 -36 4 -52t2 -28.5t1 -31t1 -58.5q103 97 197 112q31 5 66 -1.5t64 -23.5t48.5 -45t21.5 -65q2 -23 -3 -46t-14 -43t-20.5 -37t-23.5 -29l-1 -2
q-38 -35 -77.5 -55.5t-78.5 -32t-75.5 -15t-69.5 -3.5zM301 1075q21 -3 40 -3h2q31 -1 67 -1t74 7t76.5 24t75.5 50q27 24 33.5 52.5t-3.5 51t-34.5 36t-60.5 7.5q-44 -7 -96 -43t-109 -100q-11 -12 -20 -23l-18 -22z" />
    <glyph glyph-name="uni0679.fina" unicode="&#x679;" horiz-adv-x="2236" arabic-form="final" 
d="M1843 164q-39 46 -62 109q-264 -276 -833 -276q-304 2 -503.5 72.5t-289.5 222.5q-29 49 -44.5 101t-20 103.5t0 101.5t16.5 95q12 47 24.5 85t23.5 65.5t19 43.5t10 19l173 -95q0 -1 -9 -20t-20 -50t-21.5 -72t-13 -86t5.5 -92t33 -89q60 -102 215.5 -153.5t400.5 -52.5
q221 0 376 38.5t258 122.5q46 36 79.5 79t57 89t39.5 93t29 92l190 -52q-5 -20 -11 -44.5t-12 -53.5q-12 -59 -11 -100q2 -43 13 -90t42 -84q71 -89 238 -89q42 0 70.5 -28.5t28.5 -70.5t-28.5 -70t-70.5 -28h-8q-260 3 -385 164zM1056 836q-15 0 -28.5 0.5t-25.5 1.5h-3
q-67 3 -133.5 17.5t-138.5 42.5l32 79q29 -11 56 -19.5t54 -15.5q9 13 22.5 31t30.5 41l3 4q6 37 8.5 66t3 57.5t-1.5 60.5t-5 75q-4 46 -7.5 85.5t-7.5 68.5q-4 34 -8 62l84 16l3 -24t6.5 -57.5t7.5 -71t6 -64.5q3 -36 4 -52t2 -28.5t1 -31t1 -58.5q103 97 197 112
q31 5 66 -1.5t64 -23.5t48.5 -45t21.5 -65q2 -23 -3 -46t-14 -43t-20.5 -37t-23.5 -29l-1 -2q-38 -35 -77.5 -55.5t-78.5 -32t-75.5 -15t-69.5 -3.5zM963 926q21 -3 40 -3h2q31 -1 67 -1t74 7t76.5 24t75.5 50q27 24 33.5 52.5t-3.5 51t-34.5 36t-60.5 7.5q-44 -7 -96 -43
t-109 -100q-11 -12 -20 -23l-18 -22z" />
    <glyph glyph-name="uni0629" unicode="&#x629;" horiz-adv-x="1020" arabic-form="isolated" 
d="M522 0q-5 0 -24.5 1t-48.5 5.5t-65.5 14t-73.5 27.5q-95 44 -144.5 120t-49.5 179q0 180 163 377q33 39 63.5 70t53.5 52q-30 27 -48 42t-18 16l126 153q1 -2 21.5 -19t52.5 -47t73 -70.5t84 -88.5q122 -139 182.5 -260.5t60.5 -224.5t-45.5 -179t-133.5 -119
q-32 -16 -65 -25.5t-63 -15t-56.5 -7t-44.5 -1.5zM534 704q-29 -26 -67.5 -66t-72.5 -88t-57.5 -100.5t-23.5 -102.5q0 -15 2.5 -31t11 -31.5t24.5 -30.5t43 -27q19 -9 39 -14.5t37 -8.5t31 -4t21 -1q9 0 25.5 0.5t36 3t40 8t39.5 14.5q37 20 53.5 48.5t16.5 73.5
q0 65 -50 156t-145 197q-1 1 -1.5 2t-2.5 2zM437 1360l-162 -162l-164 163l162 163zM815 1359l-162 -163l-164 164l162 162z" />
    <glyph glyph-name="uni0629.fina" unicode="&#x629;" horiz-adv-x="1126" arabic-form="final" 
d="M679 702q-24 -10 -57 -24.5t-68.5 -33t-70 -41t-62 -48t-44.5 -55t-17 -61.5q0 -33 20.5 -53.5t53 -32t73.5 -15.5t82.5 -3.5t79 4.5t63.5 9q-12 58 -24.5 142t-28.5 212zM581 140q-258 0 -359 125q-28 34 -39.5 72.5t-13 75.5t4.5 69t15 53q27 56 64.5 103t80 84.5
t88 67t88 51.5t80.5 38t66 26q-8 76 -11.5 111.5t-3.5 36.5l196 41v1q1 -9 4 -37t7 -66.5t8.5 -82t8.5 -81.5t7 -66t4 -35q15 -129 28 -211t23 -130.5t16.5 -69.5t9.5 -27q12 -27 27.5 -45t36.5 -28.5t48 -15t62 -4.5q41 0 70 -28t29 -70q0 -20 -8 -38t-21.5 -31.5
t-31.5 -21t-38 -7.5q-38 0 -90.5 6.5t-104.5 30.5q-80 38 -132 122q-62 -10 -116 -14.5t-103 -4.5zM603 1426l-162 -162l-164 163l162 163zM981 1425l-162 -163l-164 164l162 162z" />
    <glyph glyph-name="uni0686.init" unicode="&#x686;" horiz-adv-x="1559" arabic-form="initial" 
d="M-101 98q0 42 29 70t71 28h198q134 0 266.5 25.5t261.5 67.5t252 96t237 111q-68 24 -131.5 52t-124.5 57q-47 22 -91.5 42.5t-85.5 36.5t-78.5 25.5t-68.5 9.5q-42 0 -78.5 -18t-68 -45.5t-56.5 -59t-42.5 -59t-27 -46t-10.5 -19.5l-180 81q1 2 8.5 17.5t21.5 40t35 55
t48 62.5q77 94 165.5 141t184.5 47q48 0 98 -11t101 -29.5t103.5 -42.5t106.5 -49q59 -28 119.5 -55t121.5 -48.5t122 -34.5t123 -13l38 -190q-70 -29 -139.5 -62.5t-143.5 -70.5q-110 -55 -236.5 -110t-265 -99.5t-286.5 -72.5t-299 -28h-190h-8q-21 0 -39 7.5t-31.5 21
t-21.5 31.5t-8 38zM954 -129l162 -162l-164 -164l-162 162zM548 -130l162 -163l-164 -164l-162 163zM756 -435l148 -148l-149 -149l-148 148z" />
    <glyph glyph-name="uni0686.medi" unicode="&#x686;" horiz-adv-x="1663" arabic-form="medial" 
d="M-99 97q0 20 7.5 38t21 31.5t31.5 21.5t39 8h183q134 0 257.5 25.5t239.5 66.5t226 93.5t218 105.5l18 9q-68 24 -131.5 53t-124.5 57q-46 22 -90.5 42t-86 35.5t-79 25t-69.5 9.5q-42 0 -79 -18t-68 -45t-56 -58.5t-42 -59t-26.5 -46l-9.5 -18.5l-181 82q0 1 7.5 16
t22 40t35 56t47.5 63q78 91 166.5 139t183.5 48q48 0 98 -11t101 -29.5t103.5 -42t106.5 -48.5q59 -29 119.5 -56t121.5 -49t122.5 -35t122.5 -13l39 -189q-45 -19 -90.5 -40.5t-91.5 -43.5q11 -38 35.5 -64.5t56.5 -45t67.5 -29t69.5 -16.5t63.5 -7.5t47.5 -1.5h6h8
q21 0 39 -8t31.5 -21.5t21 -31.5t7.5 -38q0 -42 -28.5 -69.5t-70.5 -27.5h-14q-99 0 -183 18.5t-150 53.5t-113.5 85.5t-72.5 114.5q-102 -51 -212 -100t-228 -87.5t-245.5 -62t-265.5 -23.5l-183 1q-42 0 -70.5 27.5t-28.5 69.5zM953 -135l162 -162l-164 -164l-162 162z
M547 -136l162 -163l-164 -164l-162 163zM755 -441l148 -148l-149 -149l-148 148z" />
    <glyph glyph-name="uni062C" unicode="&#x62c;" horiz-adv-x="1734" arabic-form="isolated" 
d="M908 -718q-113 -9 -217.5 7.5t-195.5 56t-164.5 101t-123.5 142.5t-73 180.5t-12 214.5q10 102 48 192.5t107 171.5q60 69 134 125t164 98q123 57 255 89.5t256 47.5q-28 14 -54.5 26.5t-54.5 26.5q-106 52 -191 90.5t-145 46.5q-139 19 -250 -99q-23 -24 -38.5 -47
t-27.5 -43q-7 -11 -12.5 -21.5t-10.5 -20.5l-182 76q3 4 11 22t23 44t38 58.5t55 65.5q88 97 195 137t226 24q84 -11 180 -53.5t218 -101.5q109 -55 231.5 -112t267.5 -105l-36 -192q-2 0 -43 1t-108.5 -0.5t-155 -8t-183.5 -21.5t-194 -41t-186 -67q-24 -11 -56.5 -29.5
t-68.5 -45t-72 -61.5t-66 -78.5t-51 -96.5t-26 -115q-8 -86 13 -157.5t64 -128t105 -97.5t136.5 -65.5t158.5 -32t171 2.5q50 4 103.5 16t107.5 32.5t107 49.5t102 67l115 -161q-75 -54 -145.5 -91t-142 -61.5t-147 -38t-159.5 -20.5zM1022 -9l-163 -163l-164 164l163 163z
" />
    <glyph glyph-name="uni062C.init" unicode="&#x62c;" horiz-adv-x="1548" arabic-form="initial" 
d="M-101 98q0 42 29 70t71 28h198q134 0 266.5 25.5t261.5 67.5t252 96t237 111q-68 24 -131.5 52t-124.5 57q-47 22 -91.5 42.5t-85.5 36.5t-78.5 25.5t-68.5 9.5q-42 0 -78.5 -18t-68 -45.5t-56.5 -59t-42.5 -59t-27 -46t-10.5 -19.5l-180 81q1 2 8.5 17.5t21.5 40t35 55
t48 62.5q77 94 165.5 141t184.5 47q48 0 98 -11t101 -29.5t103.5 -42.5t106.5 -49q59 -28 119.5 -55t121.5 -48.5t122 -34.5t123 -13l38 -190q-70 -29 -139.5 -62.5t-143.5 -70.5q-110 -55 -236.5 -110t-265 -99.5t-286.5 -72.5t-299 -28h-190h-8q-21 0 -39 7.5t-31.5 21
t-21.5 31.5t-8 38zM928 -365l-163 -163l-164 164l163 163z" />
    <glyph glyph-name="uni062C.medi" unicode="&#x62c;" horiz-adv-x="1663" arabic-form="medial" 
d="M-99 97q0 20 7.5 38t21 31.5t31.5 21.5t39 8h183q134 0 257.5 25.5t239.5 66.5t226 93.5t218 105.5l18 9q-68 24 -131.5 53t-124.5 57q-46 22 -90.5 42t-86 35.5t-79 25t-69.5 9.5q-42 0 -79 -18t-68 -45t-56 -58.5t-42 -59t-26.5 -46l-9.5 -18.5l-181 82q0 1 7.5 16
t22 40t35 56t47.5 63q78 91 166.5 139t183.5 48q48 0 98 -11t101 -29.5t103.5 -42t106.5 -48.5q59 -29 119.5 -56t121.5 -49t122.5 -35t122.5 -13l39 -189q-45 -19 -90.5 -40.5t-91.5 -43.5q11 -38 35.5 -64.5t56.5 -45t67.5 -29t69.5 -16.5t63.5 -7.5t47.5 -1.5h6h8
q21 0 39 -8t31.5 -21.5t21 -31.5t7.5 -38q0 -42 -28.5 -69.5t-70.5 -27.5h-14q-99 0 -183 18.5t-150 53.5t-113.5 85.5t-72.5 114.5q-102 -51 -212 -100t-228 -87.5t-245.5 -62t-265.5 -23.5l-183 1q-42 0 -70.5 27.5t-28.5 69.5zM952 -363l-163 -163l-164 164l163 163z" />
    <glyph glyph-name="uni062C.fina" unicode="&#x62c;" horiz-adv-x="1696" arabic-form="final" 
d="M912 -791q-142 0 -270 40.5t-228.5 113.5t-167 173t-86.5 218.5t13.5 252t132.5 271.5q120 140 300 224q123 57 254 89t257 47l-108 52q-105 53 -192 91.5t-145 46.5q-139 19 -251 -99q-33 -36 -53.5 -69t-29.5 -51l-5 -12l-184 76q2 4 10.5 22t24.5 44.5t39 58.5t54 65
q88 97 194.5 137t226.5 24q84 -11 180.5 -53.5t217.5 -102.5q109 -54 232 -111t268 -105l-38 -192q-2 0 -18.5 0.5t-46 1t-70 -0.5t-89.5 -4q-2 -11 -2.5 -30.5t2.5 -42.5t12 -48t27 -47q24 -29 54.5 -47t70 -28.5t89.5 -14t113 -3.5q20 0 38 -8t31.5 -21.5t21.5 -31.5
t8 -39q0 -41 -29 -68.5t-70 -27.5q-92 0 -166.5 10.5t-133.5 31.5t-104.5 52.5t-79.5 74.5q-36 48 -57 106.5t-24 125.5q-3 21 0 38q-112 -14 -227 -41t-220 -75q-24 -12 -56.5 -30.5t-68.5 -45t-71.5 -61t-65.5 -78t-50.5 -96t-25.5 -115.5q-6 -96 22 -175t81.5 -139
t127.5 -101.5t159 -63t177 -23t181.5 18t171.5 60t148 103.5l129 -152q-71 -63 -149 -104.5t-159.5 -66t-164 -35t-162.5 -10.5zM1062 -122l-163 -163l-164 164l163 163z" />
    <glyph glyph-name="uni062E" unicode="&#x62e;" horiz-adv-x="1734" arabic-form="isolated" 
d="M902 -718q-113 -9 -217.5 7.5t-195.5 56t-164.5 101t-123.5 142.5t-73 180.5t-12 214.5q10 102 48 192.5t107 171.5q60 69 134 125t164 98q123 57 255 89.5t256 47.5q-28 14 -54.5 26.5t-54.5 26.5q-106 52 -191 90.5t-145 46.5q-139 19 -250 -99q-23 -24 -38.5 -47
t-27.5 -43q-7 -11 -12.5 -21.5t-10.5 -20.5l-182 76q3 4 11 22t23 44t38 58.5t55 65.5q88 97 195 137t226 24q84 -11 180 -53.5t218 -101.5q109 -55 231.5 -112t267.5 -105l-36 -192q-2 0 -43 1t-108.5 -0.5t-155 -8t-183.5 -21.5t-194 -41t-186 -67q-24 -11 -56.5 -29.5
t-68.5 -45t-72 -61.5t-66 -78.5t-51 -96.5t-26 -115q-8 -86 13 -157.5t64 -128t105 -97.5t136.5 -65.5t158.5 -32t171 2.5q50 4 103.5 16t107.5 32.5t107 49.5t102 67l115 -161q-75 -54 -145.5 -91t-142 -61.5t-147 -38t-159.5 -20.5zM710 1442l-163 -163l-164 164l163 163z
" />
    <glyph glyph-name="uni062E.init" unicode="&#x62e;" horiz-adv-x="1548" arabic-form="initial" 
d="M-101 98q0 42 29 70t71 28h198q134 0 266.5 25.5t261.5 67.5t252 96t237 111q-68 24 -131.5 52t-124.5 57q-47 22 -91.5 42.5t-85.5 36.5t-78.5 25.5t-68.5 9.5q-42 0 -78.5 -18t-68 -45.5t-56.5 -59t-42.5 -59t-27 -46t-10.5 -19.5l-180 81q1 2 8.5 17.5t21.5 40t35 55
t48 62.5q77 94 165.5 141t184.5 47q48 0 98 -11t101 -29.5t103.5 -42.5t106.5 -49q59 -28 119.5 -55t121.5 -48.5t122 -34.5t123 -13l38 -190q-70 -29 -139.5 -62.5t-143.5 -70.5q-110 -55 -236.5 -110t-265 -99.5t-286.5 -72.5t-299 -28h-190h-8q-21 0 -39 7.5t-31.5 21
t-21.5 31.5t-8 38zM755 1285l-163 -163l-164 164l163 163z" />
    <glyph glyph-name="uni062E.medi" unicode="&#x62e;" horiz-adv-x="1669" arabic-form="medial" 
d="M-99 97q0 20 7.5 38t21 31.5t31.5 21.5t39 8h183q134 0 257.5 25.5t239.5 66.5t226 93.5t218 105.5l18 9q-68 24 -131.5 53t-124.5 57q-46 22 -90.5 42t-86 35.5t-79 25t-69.5 9.5q-42 0 -79 -18t-68 -45t-56 -58.5t-42 -59t-26.5 -46l-9.5 -18.5l-181 82q0 1 7.5 16
t22 40t35 56t47.5 63q78 91 166.5 139t183.5 48q48 0 98 -11t101 -29.5t103.5 -42t106.5 -48.5q59 -29 119.5 -56t121.5 -49t122.5 -35t122.5 -13l39 -189q-45 -19 -90.5 -40.5t-91.5 -43.5q11 -38 35.5 -64.5t56.5 -45t67.5 -29t69.5 -16.5t63.5 -7.5t47.5 -1.5h6h8
q21 0 39 -8t31.5 -21.5t21 -31.5t7.5 -38q0 -42 -28.5 -69.5t-70.5 -27.5h-14q-99 0 -183 18.5t-150 53.5t-113.5 85.5t-72.5 114.5q-102 -51 -212 -100t-228 -87.5t-245.5 -62t-265.5 -23.5l-183 1q-42 0 -70.5 27.5t-28.5 69.5zM703 1224l-163 -163l-164 164l163 163z" />
    <glyph glyph-name="uni062E.fina" unicode="&#x62e;" horiz-adv-x="1707" arabic-form="final" 
d="M912 -791q-142 0 -270 40.5t-228.5 113.5t-167 173t-86.5 218.5t13.5 252t132.5 271.5q120 140 300 224q123 57 254 89t257 47l-108 52q-105 53 -192 91.5t-145 46.5q-139 19 -251 -99q-33 -36 -53.5 -69t-29.5 -51l-5 -12l-184 76q2 4 10.5 22t24.5 44.5t39 58.5t54 65
q88 97 194.5 137t226.5 24q84 -11 180.5 -53.5t217.5 -102.5q109 -54 232 -111t268 -105l-38 -192q-2 0 -18.5 0.5t-46 1t-70 -0.5t-89.5 -4q-2 -11 -2.5 -30.5t2.5 -42.5t12 -48t27 -47q24 -29 54.5 -47t70 -28.5t89.5 -14t113 -3.5q20 0 38 -8t31.5 -21.5t21.5 -31.5
t8 -39q0 -41 -29 -68.5t-70 -27.5q-92 0 -166.5 10.5t-133.5 31.5t-104.5 52.5t-79.5 74.5q-36 48 -57 106.5t-24 125.5q-3 21 0 38q-112 -14 -227 -41t-220 -75q-24 -12 -56.5 -30.5t-68.5 -45t-71.5 -61t-65.5 -78t-50.5 -96t-25.5 -115.5q-6 -96 22 -175t81.5 -139
t127.5 -101.5t159 -63t177 -23t181.5 18t171.5 60t148 103.5l129 -152q-71 -63 -149 -104.5t-159.5 -66t-164 -35t-162.5 -10.5zM764 1362l-163 -163l-164 164l163 163z" />
    <glyph glyph-name="uni0630" unicode="&#x630;" horiz-adv-x="1138" arabic-form="isolated" 
d="M545 1q-48 0 -113.5 12t-130.5 30.5t-119 41.5t-79 46l82 188q37 -24 89 -46.5t111 -39t121.5 -24.5t120.5 -3t108 25t84 61q27 31 7 116q-11 49 -35.5 102.5t-59 107t-76.5 104.5t-87.5 94.5t-92.5 78t-92 53.5l81 182q59 -27 119 -70t116.5 -97t108 -116.5t93.5 -129
t73 -133.5t46 -131q12 -56 12 -101t-8.5 -80t-22.5 -61t-30 -45q-92 -111 -257 -147q-38 -10 -80 -14t-89 -4zM625 1464l-163 -163l-164 164l163 163z" />
    <glyph glyph-name="uni0630.fina" unicode="&#x630;" horiz-adv-x="1247" arabic-form="final" 
d="M530 0q-117 0 -218.5 49t-185.5 136l113 159q121 -111 235.5 -135t222.5 19q51 20 83.5 43.5t49.5 40.5l-316 760l182 76q32 -78 77 -187q38 -94 95 -231.5t134 -320.5q20 -48 35.5 -87.5t39.5 -67t64 -43t108 -15.5q41 0 70 -28t29 -70t-29 -70t-70 -28
q-65 0 -115.5 10.5t-89 28.5t-67.5 42.5t-50 51.5q-30 -22 -68.5 -46t-88.5 -44q-28 -11 -54.5 -19t-55 -13.5t-60.5 -8t-70 -2.5zM790 1468l-163 -163l-164 164l163 163z" />
    <glyph glyph-name="uni0688" unicode="&#x688;" horiz-adv-x="1149" arabic-form="isolated" 
d="M553 1q-48 0 -113.5 12t-130.5 30.5t-119 41.5t-79 46l82 188q37 -24 89 -46.5t111 -39t121.5 -24.5t120.5 -3t108 25t84 61q27 31 7 116q-11 49 -35.5 102.5t-59 107t-76.5 104.5t-87.5 94.5t-92.5 78t-92 53.5l81 182q59 -27 119 -70t116.5 -97t108 -116.5t93.5 -129
t73 -133.5t46 -131q12 -56 12 -101t-8.5 -80t-22.5 -61t-30 -45q-92 -111 -257 -147q-38 -10 -80 -14t-89 -4zM486 1278q-15 0 -28.5 0.5t-25.5 1.5h-3q-67 3 -133.5 17.5t-138.5 42.5l32 79q29 -11 56 -19.5t54 -15.5q9 13 22.5 31t30.5 41l3 4q6 37 8.5 66t3 57.5
t-1.5 60.5t-5 75q-4 46 -7.5 85.5t-7.5 68.5q-4 34 -8 62l84 16l3 -24t6.5 -57.5t7.5 -71t6 -64.5q3 -36 4 -52t2 -28.5t1 -31t1 -58.5q103 97 197 112q31 5 66 -1.5t64 -23.5t48.5 -45t21.5 -65q2 -23 -3 -46t-14 -43t-20.5 -37t-23.5 -29l-1 -2q-38 -35 -77.5 -55.5
t-78.5 -32t-75.5 -15t-69.5 -3.5zM393 1368q21 -3 40 -3h2q31 -1 67 -1t74 7t76.5 24t75.5 50q27 24 33.5 52.5t-3.5 51t-34.5 36t-60.5 7.5q-44 -7 -96 -43t-109 -100q-11 -12 -20 -23l-18 -22z" />
    <glyph glyph-name="uni0688.fina" unicode="&#x688;" horiz-adv-x="1242" arabic-form="final" 
d="M530 0q-117 0 -218.5 49t-185.5 136l113 159q121 -111 235.5 -135t222.5 19q51 20 83.5 43.5t49.5 40.5l-316 760l182 76q32 -78 77 -187q38 -94 95 -231.5t134 -320.5q20 -48 35.5 -87.5t39.5 -67t64 -43t108 -15.5q41 0 70 -28t29 -70t-29 -70t-70 -28
q-65 0 -115.5 10.5t-89 28.5t-67.5 42.5t-50 51.5q-30 -22 -68.5 -46t-88.5 -44q-28 -11 -54.5 -19t-55 -13.5t-60.5 -8t-70 -2.5zM518 1254q-15 0 -28.5 0.5t-25.5 1.5h-3q-67 3 -133.5 17.5t-138.5 42.5l32 79q29 -11 56 -19.5t54 -15.5q9 13 22.5 31t30.5 41l3 4
q6 37 8.5 66t3 57.5t-1.5 60.5t-5 75q-4 46 -7.5 85.5t-7.5 68.5q-4 34 -8 62l84 16l3 -24t6.5 -57.5t7.5 -71t6 -64.5q3 -36 4 -52t2 -28.5t1 -31t1 -58.5q103 97 197 112q31 5 66 -1.5t64 -23.5t48.5 -45t21.5 -65q2 -23 -3 -46t-14 -43t-20.5 -37t-23.5 -29l-1 -2
q-38 -35 -77.5 -55.5t-78.5 -32t-75.5 -15t-69.5 -3.5zM425 1344q21 -3 40 -3h2q31 -1 67 -1t74 7t76.5 24t75.5 50q27 24 33.5 52.5t-3.5 51t-34.5 36t-60.5 7.5q-44 -7 -96 -43t-109 -100q-11 -12 -20 -23l-18 -22z" />
    <glyph glyph-name="uni0632" unicode="&#x632;" horiz-adv-x="722" arabic-form="isolated" 
d="M494 650q28 -93 53 -184q10 -39 21 -81t20.5 -84t16.5 -81.5t11 -73.5q1 -11 2 -25t1 -31q0 -87 -25.5 -169t-71 -157.5t-108 -144.5t-136 -129.5t-155 -112.5t-165.5 -93l-87 176q105 52 204 120.5t176.5 149.5t124.5 172t47 188q0 5 -1 16.5t-2 22.5v-1q-3 31 -10 67.5
t-16 75t-19 77t-20 74.5q-24 84 -51 168zM561 1056l-163 -163l-164 164l163 163z" />
    <glyph glyph-name="uni0632.fina" unicode="&#x632;" horiz-adv-x="819" arabic-form="final" 
d="M625 73v-4q0 -87 -25.5 -169t-71 -158t-108 -144.5t-136 -129.5t-155 -112.5t-165.5 -93.5l-86 177q72 37 143 81t134 95t116 108t89.5 119t54.5 129t11 137v-2q-7 57 -21.5 122.5t-32 128.5t-34 118.5t-28.5 92.5l188 58q38 -116 74.5 -197.5t75 -133t80.5 -75.5t92 -24
h5q21 0 39 -8t31.5 -21.5t21 -31.5t7.5 -38q0 -42 -28.5 -69.5t-70.5 -27.5h-1q-14 0 -36.5 1t-50 8t-56.5 22t-56 42zM554 994l-163 -163l-164 164l163 163z" />
    <glyph glyph-name="uni0691" unicode="&#x691;" horiz-adv-x="864" arabic-form="isolated" 
d="M494 650q28 -93 53 -184q10 -39 21 -81t20.5 -84t16.5 -81.5t11 -73.5q1 -11 2 -25t1 -31q0 -87 -25.5 -169t-71 -157.5t-108 -144.5t-136 -129.5t-155 -112.5t-165.5 -93l-87 176q105 52 204 120.5t176.5 149.5t124.5 172t47 188q0 5 -1 16.5t-2 22.5v-1q-3 31 -10 67.5
t-16 75t-19 77t-20 74.5q-24 84 -51 168zM396 930q-15 0 -28.5 0.5t-25.5 1.5h-3q-67 3 -133.5 17.5t-138.5 42.5l32 79q29 -11 56 -19.5t54 -15.5q9 13 22.5 31t30.5 41l3 4q6 37 8.5 66t3 57.5t-1.5 60.5t-5 75q-4 46 -7.5 85.5t-7.5 68.5q-4 34 -8 62l84 16l3 -24
t6.5 -57.5t7.5 -71t6 -64.5q3 -36 4 -52t2 -28.5t1 -31t1 -58.5q103 97 197 112q31 5 66 -1.5t64 -23.5t48.5 -45t21.5 -65q2 -23 -3 -46t-14 -43t-20.5 -37t-23.5 -29l-1 -2q-38 -35 -77.5 -55.5t-78.5 -32t-75.5 -15t-69.5 -3.5zM303 1020q21 -3 40 -3h2q31 -1 67 -1t74 7
t76.5 24t75.5 50q27 24 33.5 52.5t-3.5 51t-34.5 36t-60.5 7.5q-44 -7 -96 -43t-109 -100q-11 -12 -20 -23l-18 -22z" />
    <glyph glyph-name="uni0691.fina" unicode="&#x691;" horiz-adv-x="822" arabic-form="final" 
d="M625 73v-4q0 -87 -25.5 -169t-71 -158t-108 -144.5t-136 -129.5t-155 -112.5t-165.5 -93.5l-86 177q72 37 143 81t134 95t116 108t89.5 119t54.5 129t11 137v-2q-7 57 -21.5 122.5t-32 128.5t-34 118.5t-28.5 92.5l188 58q38 -116 74.5 -197.5t75 -133t80.5 -75.5t92 -24
h5q21 0 39 -8t31.5 -21.5t21 -31.5t7.5 -38q0 -42 -28.5 -69.5t-70.5 -27.5h-1q-14 0 -36.5 1t-50 8t-56.5 22t-56 42zM401 877q-15 0 -28.5 0.5t-25.5 1.5h-3q-67 3 -133.5 17.5t-138.5 42.5l32 79q29 -11 56 -19.5t54 -15.5q9 13 22.5 31t30.5 41l3 4q6 37 8.5 66t3 57.5
t-1.5 60.5t-5 75q-4 46 -7.5 85.5t-7.5 68.5q-4 34 -8 62l84 16l3 -24t6.5 -57.5t7.5 -71t6 -64.5q3 -36 4 -52t2 -28.5t1 -31t1 -58.5q103 97 197 112q31 5 66 -1.5t64 -23.5t48.5 -45t21.5 -65q2 -23 -3 -46t-14 -43t-20.5 -37t-23.5 -29l-1 -2q-38 -35 -77.5 -55.5
t-78.5 -32t-75.5 -15t-69.5 -3.5zM308 967q21 -3 40 -3h2q31 -1 67 -1t74 7t76.5 24t75.5 50q27 24 33.5 52.5t-3.5 51t-34.5 36t-60.5 7.5q-44 -7 -96 -43t-109 -100q-11 -12 -20 -23l-18 -22z" />
    <glyph glyph-name="uni0698" unicode="&#x698;" horiz-adv-x="930" arabic-form="isolated" 
d="M592 650q28 -93 53 -184q10 -39 21 -81t20.5 -84t16.5 -81.5t11 -73.5q1 -11 2 -25t1 -31q0 -87 -25.5 -169t-71 -157.5t-108 -144.5t-136 -129.5t-155 -112.5t-165.5 -93l-87 176q105 52 204 120.5t176.5 149.5t124.5 172t47 188q0 5 -1 16.5t-2 22.5v-1q-3 31 -10 67.5
t-16 75t-19 77t-20 74.5q-24 84 -51 168zM504 1082l162 162l164 -164l-162 -162zM98 1083l162 163l164 -164l-162 -163zM321 1373l148 148l149 -149l-148 -148z" />
    <glyph glyph-name="uni0698.fina" unicode="&#x698;" horiz-adv-x="871" arabic-form="final" 
d="M675 73v-4q0 -87 -25.5 -169t-71 -158t-108 -144.5t-136 -129.5t-155 -112.5t-165.5 -93.5l-86 177q72 37 143 81t134 95t116 108t89.5 119t54.5 129t11 137v-2q-7 57 -21.5 122.5t-32 128.5t-34 118.5t-28.5 92.5l188 58q38 -116 74.5 -197.5t75 -133t80.5 -75.5t92 -24
h5q21 0 39 -8t31.5 -21.5t21 -31.5t7.5 -38q0 -42 -28.5 -69.5t-70.5 -27.5h-1q-14 0 -36.5 1t-50 8t-56.5 22t-56 42zM481 967l162 162l164 -164l-162 -162zM75 968l162 163l164 -164l-162 -163zM298 1258l148 148l149 -149l-148 -148z" />
    <glyph glyph-name="uni0634" unicode="&#x634;" horiz-adv-x="2681" arabic-form="isolated" 
d="M2428 924q5 -10 18.5 -36t31 -64t36 -86t34 -101t25.5 -110t10 -112q-1 -86 -20.5 -161t-60 -131t-104.5 -88t-155 -32q-28 0 -60 8.5t-64 25t-61 41.5t-50 57q-60 -71 -135 -100t-159 -33q-48 -2 -85 7t-63 21q-31 14 -53 33q3 -87 -9.5 -170.5t-43.5 -159t-82.5 -140.5
t-127.5 -115q-92 -63 -208.5 -96t-261.5 -40q-10 0 -20 -0.5t-19 -0.5q-132 0 -240.5 37.5t-193.5 112.5q-76 67 -125.5 161t-65.5 205q-10 61 -9 122.5t8 118.5t19 107.5t24 90.5q31 102 66.5 174.5t61.5 107.5l159 -117q-20 -26 -47.5 -87t-51 -141t-35 -171t0.5 -177
q4 -26 13.5 -62t29 -74t50 -75.5t76.5 -67t109.5 -48t147.5 -18.5h33q213 9 342.5 84t174.5 214q26 82 28.5 165t-10 162t-36 150.5t-48.5 129.5q-24 54 -41.5 83t-17.5 31l167 108q6 -16 16 -38q8 -19 19.5 -45.5t27.5 -61.5q27 -63 56.5 -121.5t66 -103.5t82.5 -71
t107 -24q52 1 84.5 21t52 53t27 77t10 93.5t1 102t-0.5 102.5l203 20l2 -30q1 -13 1 -28t1 -28q1 -25 3.5 -63.5t8.5 -82t17 -87.5t28.5 -79.5t43.5 -57.5t63 -22q34 0 60.5 19.5t44.5 52.5t26 75.5t6 88.5q-3 64 -18.5 122.5t-35.5 110.5t-42 95t-38 75zM1936 1142l162 162
l164 -164l-162 -162zM1530 1143l162 163l164 -164l-162 -163zM1753 1433l148 148l149 -149l-148 -148z" />
    <glyph glyph-name="uni0634.init" unicode="&#x634;" horiz-adv-x="1609" arabic-form="initial" 
d="M-92 97q0 19 7 36.5t19.5 31t29.5 21.5t36 10q59 0 106.5 23t84.5 61.5t64 88.5t47.5 104.5t34.5 110t23 104.5l198 -42q-8 -24 -19.5 -62t-22.5 -81.5t-19 -89t-8 -84.5q0 -27 5 -52.5t17 -45.5t33 -32t53 -12q51 0 91.5 28t72 73t54.5 102t39.5 116t27.5 114.5t17 96.5
l192 -35l-5.5 -32.5t-13 -79t-13.5 -99t-6 -93.5q0 -37 5.5 -70.5t18 -59t33 -42t50.5 -19.5q46 -6 76.5 1t48.5 18.5t26.5 24.5t11.5 19h-1q14 22 19.5 50t5.5 60q0 57 -15.5 123t-37 129.5t-45 118t-39.5 86.5l175 92q5 -10 19 -38.5t32 -70t37.5 -93.5t35.5 -109.5
t26.5 -117.5t10.5 -117q0 -86 -24 -155.5t-72 -118.5t-120.5 -75.5t-169.5 -25.5q-39 0 -77 12t-73 32.5t-65 48t-51 59.5q-60 -70 -136 -111t-161 -41q-37 0 -76.5 9.5t-75.5 28.5t-65.5 47t-45.5 65q-60 -63 -136 -100t-182 -39h-16q-19 1 -36 9t-29.5 21t-19.5 30.5
t-7 37.5zM971 1156l162 162l164 -164l-162 -162zM565 1157l162 163l164 -164l-162 -163zM788 1447l148 148l149 -149l-148 -148z" />
    <glyph glyph-name="uni0634.medi" unicode="&#x634;" horiz-adv-x="1876" arabic-form="medial" 
d="M-101 98q0 19 8.5 36.5t22 31t31.5 21.5t37 9h10q42 0 80 22.5t71 57.5t60.5 78t49.5 84q21 40 37.5 79.5t29.5 74t21.5 62t13.5 43.5q5 23 5 24l192 -53q-1 -1 -2.5 -7t-4.5 -17q-6 -23 -15 -67t-17 -98q-11 -87 -5 -152.5t27 -99.5q14 -26 44 -29q12 -3 22 -3
q38 0 73 25q45 34 88 107t77 179q17 49 28 93t17 75q5 25 8 39.5t3 16.5l195 -37q-2 -1 -4 -15.5t-7 -40.5t-9 -63.5t-5 -79.5q-5 -91 8 -158t41 -101q11 -14 29.5 -25t55.5 -11q52 0 84 36q34 37 54.5 109t26.5 170q2 45 2 83.5t-2 66.5q-3 25 -3.5 40.5t-0.5 16.5l196 16
q2 -5 4 -56q3 -21 6.5 -48t9.5 -58.5t14 -66t19 -68.5q79 -244 221 -244h12h8q42 0 70 -28t28 -70q0 -41 -28 -69.5t-70 -28.5h-8h-12q-81 0 -151.5 33.5t-126.5 98.5q-28 31 -55 75q-28 -62 -66 -103q-45 -51 -104 -77.5t-128 -26.5q-74 0 -135 28.5t-104 82.5
q-14 18 -26 38t-22 43q-56 -82 -122 -132q-89 -63 -189 -63q-14 0 -27 1.5t-27 3.5q-118 22 -181 120q-10 17 -18 35.5t-16 38.5q-33 -43 -67 -75q-124 -121 -273 -121h-10q-20 0 -38 7.5t-31.5 21t-21.5 31.5t-8 38zM1039 1125l162 162l164 -164l-162 -162zM633 1126
l162 163l164 -164l-162 -163zM856 1416l148 148l149 -149l-148 -148z" />
    <glyph glyph-name="uni0634.fina" unicode="&#x634;" horiz-adv-x="2889" arabic-form="final" 
d="M2891 197q20 0 38 -8t31.5 -21.5t21.5 -31.5t8 -39q0 -20 -8 -38t-21.5 -31.5t-31.5 -21t-38 -7.5h-9h-11q-81 0 -151.5 34t-126.5 99q-15 16 -28.5 35t-26.5 41q-14 -32 -30.5 -57.5t-35.5 -47.5q-45 -50 -103 -77t-128 -27q-28 0 -59.5 9t-63 26t-60 41.5t-49.5 56.5
q-60 -70 -135.5 -99t-160.5 -34q-47 -2 -83.5 7.5t-62.5 21.5q-30 14 -52 32q3 -87 -9.5 -170.5t-43.5 -159t-83 -140.5t-128 -116q-181 -123 -470 -135q-10 0 -20 -1t-19 -1q-264 0 -434 150q-76 68 -125.5 162t-65.5 205q-10 61 -9 122.5t8 118.5t19 107t24 90
q31 103 66.5 175.5t61.5 107.5l159 -118q-13 -18 -30 -51.5t-34.5 -78t-33.5 -98.5t-26.5 -112t-13.5 -118t5 -117q4 -26 13.5 -62t29 -74.5t50 -76t76.5 -67t109.5 -48t147.5 -18.5h34q212 10 341.5 85t174.5 213q26 82 32.5 170t-1 172t-26.5 159.5t-44 134.5
q-12 27 -19 43.5t-10.5 25.5t-5 12.5l-1.5 3.5l166 108q4 -11 9 -26q5 -13 12 -31t16 -40q24 -63 46.5 -128.5t53.5 -119t75.5 -87t113.5 -33.5q51 0 86.5 19.5t58 52.5t35 77.5t18.5 94.5t8 103.5t4 103.5l203 -15q0 -15 -1 -30q-1 -13 -1.5 -28t-1.5 -28q-1 -25 -2 -61
t1 -75t9 -78.5t22 -70.5t39 -50.5t61 -19.5q28 0 45 11t34 31q34 37 54.5 109t26.5 171q2 45 1.5 83.5t-1.5 65.5q-3 26 -3.5 41t-0.5 17l196 14q1 0 2 -15.5t2 -40.5q5 -40 16 -105t33 -136q79 -242 221 -242h20zM2034 1050l162 162l164 -164l-162 -162zM1628 1051l162 163
l164 -164l-162 -163zM1851 1341l148 148l149 -149l-148 -148z" />
    <glyph glyph-name="uni0636" unicode="&#x636;" horiz-adv-x="2894" arabic-form="isolated" 
d="M836 -649q-24 0 -49.5 1t-51.5 5q-98 7 -179.5 31t-147.5 64q-63 37 -108.5 87.5t-78.5 113.5q-58 123 -57 280q0 63 10 128.5t28 137.5q15 60 34 114t38 97.5t34.5 74t24.5 43.5l166 -106q-8 -11 -26.5 -49t-39 -94.5t-39.5 -126t-27.5 -141.5t-2.5 -142.5t35 -128.5
q79 -164 353 -187q280 -24 430 105q43 36 71.5 78.5t46.5 87.5t26 89t11 82q6 85 -8 176t-35 171.5t-42.5 143t-31.5 89.5q-4 4 -5 8.5t-4 9.5l184 77l8 -23q32 -75 72 -142t75 -122q13 -20 31.5 -39.5t42.5 -39.5q18 33 42 73t55 83t67.5 87t80.5 86q89 85 194 140t214 75
q128 22 236.5 -9t188.5 -115q60 -60 87 -130.5t22 -146.5q-8 -114 -62.5 -204.5t-151.5 -153.5q-54 -35 -114 -58t-119 -36.5t-115 -20t-104 -7.5q-114 -5 -225.5 11.5t-200.5 48.5q-51 20 -97 44t-87 53q3 -74 0 -144q-10 -139 -63 -255q-29 -66 -69.5 -120.5t-91.5 -98.5
q-184 -155 -475 -155zM1798 209q43 -15 98 -26t116 -16t125 -3t126.5 12t120 29.5t104.5 49.5q115 72 127 205q1 21 -4 40.5t-13.5 36t-18.5 29.5t-18 21q-29 28 -61.5 44t-65.5 23t-64.5 6t-57.5 -7q-81 -14 -159.5 -56t-146.5 -106q-38 -36 -69.5 -74t-57.5 -75t-46 -71
t-35 -62zM2437 1250l-163 -163l-164 164l163 163z" />
    <glyph glyph-name="uni0636.init" unicode="&#x636;" horiz-adv-x="1894" arabic-form="initial" 
d="M777 188q53 -6 117.5 -8.5t133 -0.5t139 9.5t136 23t122.5 40t100 59.5q81 66 90 171q0 21 -5.5 40.5t-13.5 36t-18 29.5t-18 21q-29 30 -61 46t-64.5 22t-64.5 4.5t-59 -5.5q-79 -16 -157.5 -57.5t-146.5 -106.5q-46 -44 -83 -90.5t-65.5 -90t-48.5 -81t-33 -62.5z
M-99 98q0 42 29 70t70 28q60 0 102.5 9.5t71.5 23.5t47 30.5t29 31.5q35 47 52 112.5t33 141.5q8 43 17 83t22 79l189 -57q-8 -20 -12.5 -40.5t-9.5 -41.5h1q-4 -20 -8.5 -58t-2 -82t15 -90t41.5 -83q13 29 36.5 74t58.5 99t81.5 112.5t105.5 114.5q44 42 93 77.5t101.5 63
t106 46t106.5 27.5q128 25 236.5 -7t189.5 -116q59 -60 86.5 -130.5t22.5 -146.5q-12 -191 -161 -311q-68 -55 -152 -90t-173.5 -54.5t-179.5 -26.5t-170 -7q-93 0 -161.5 5.5t-97.5 10.5q-81 8 -150 38q-21 10 -40.5 21.5t-39 27.5t-40 37.5t-42.5 50.5q-63 -88 -161 -129
t-235 -42h-9q-41 0 -70 28t-29 70zM1462 1250l-163 -163l-164 164l163 163z" />
    <glyph glyph-name="uni0636.medi" unicode="&#x636;" horiz-adv-x="1931" arabic-form="medial" 
d="M-99 97q0 42 28.5 70.5t69.5 28.5h9q119 3 161 24q45 23 81 70q35 45 56 111.5t41 154.5q8 38 16.5 76t19.5 75l189 -58q-8 -18 -12.5 -38.5t-9.5 -43.5h1q-4 -20 -7.5 -57.5t-1.5 -80.5t13.5 -86.5t37.5 -76.5l6 -11q13 29 37 74t59 99t81.5 113t103.5 115
q89 85 193.5 139.5t213.5 74.5q128 22 237 -9t189 -116q59 -59 86.5 -130t22.5 -146q-12 -163 -120 -273h231q42 0 71 -28.5t29 -70.5t-29 -69.5t-71 -27.5l-252 -1q-110 0 -176.5 6.5t-106.5 24.5q-105 -29 -211.5 -39t-200.5 -10q-90 0 -156.5 6t-100.5 9q-42 5 -80.5 14
t-70.5 24q-44 19 -78.5 47t-63.5 64q-14 11 -24 30q-64 -85 -161 -128q-99 -47 -252 -47q-41 0 -69.5 27.5t-28.5 69.5zM787 188q53 -6 117.5 -8.5t133.5 0t139 10.5t135.5 23.5t123 40t100.5 59.5q84 67 90 169q1 22 -4 41.5t-13 35.5t-18 28.5t-18 20.5q-29 30 -62 46
t-66 22t-64.5 4.5t-57.5 -5.5q-80 -13 -158.5 -54.5t-147.5 -107.5q-46 -43 -83 -90t-65.5 -90.5t-48.5 -81.5t-33 -63zM1517 1228l-163 -163l-164 164l163 163z" />
    <glyph glyph-name="uni0636.fina" unicode="&#x636;" horiz-adv-x="2867" arabic-form="final" 
d="M1762 208q44 -15 99 -26t116 -16.5t125.5 -3.5t126.5 12t119.5 29.5t104.5 50.5q116 74 125 205q1 22 -4 41t-13 35t-18 28.5t-18 21.5q-28 29 -60.5 45t-66 22t-65.5 5t-57 -5q-81 -14 -159.5 -57t-146.5 -107q-38 -36 -69.5 -74t-57 -74.5t-46 -70.5t-35.5 -61zM2868 0
q-48 0 -93 8.5t-83.5 22t-68 30t-45.5 31.5l-4 4l-13 -8q-54 -35 -114 -58t-119 -36.5t-115 -20t-104 -7.5q-115 -5 -226 11.5t-200 49.5q-51 18 -97.5 42t-88.5 55q3 -37 4 -72t-2 -72q-5 -71 -20.5 -134t-41.5 -121q-29 -66 -70 -120.5t-92 -99.5q-184 -155 -474 -155
q-24 0 -49 1t-51 3q-99 10 -180.5 32.5t-147.5 64.5q-127 74 -188 201q-30 61 -44 131t-13 149q1 63 10.5 128.5t27.5 137.5q15 60 34 114.5t37.5 98.5t34.5 74.5t24 44.5l167 -108q-7 -12 -25.5 -50.5t-39 -94.5t-40 -125t-28 -141t-2.5 -142.5t35 -129.5
q42 -85 128.5 -130t225.5 -58q140 -11 246.5 14.5t183.5 89.5q43 37 71.5 80t46 88t25.5 89t11 82q4 56 -1 116t-15.5 119t-25.5 114t-29.5 101t-27 80t-18.5 51q-4 5 -5 10t-2 7l182 75q38 -90 78.5 -160.5t77.5 -124.5q13 -20 31 -40.5t42 -38.5q18 33 42 73t55 82.5
t68 87t82 86.5q88 86 193.5 141t212.5 75q128 22 236.5 -9t188.5 -116q60 -60 87 -131t22 -146q-4 -58 -20.5 -109.5t-44.5 -99.5q5 -7 20.5 -14t36.5 -13t45.5 -10t47.5 -4h8q42 0 70.5 -28.5t28.5 -70.5q0 -41 -28.5 -69t-70.5 -28zM2459 1201l-163 -163l-164 164l163 163
z" />
    <glyph glyph-name="uni0638" unicode="&#x638;" horiz-adv-x="1787" arabic-form="isolated" 
d="M856 0q-33 0 -64.5 1t-61.5 3h-5q-156 8 -311.5 42t-322.5 98l72 185q133 -52 258 -83q21 31 53.5 75t78.5 103q12 86 18 154t7 134.5t-3 141t-11 173.5q-8 108 -17 200.5t-17 160t-13.5 106t-5.5 39.5l196 36l3 -26t8 -68t11 -96t11.5 -110t11 -110t8.5 -97
q4 -56 6.5 -89.5t4 -56.5t2.5 -41.5t1.5 -43.5t1 -63.5t2.5 -101.5q241 229 461 262q49 9 102 5t104.5 -20t98 -44t82 -66t56.5 -86t23 -104q4 -55 -7.5 -108t-33 -100t-48.5 -87t-54 -68l-1 -2l-2 -2q-89 -80 -181.5 -128.5t-183 -74.5t-176.5 -34.5t-162 -8.5zM641 208
q24 -3 46 -4t48 -3h2q73 -3 157.5 -2.5t173 17t178.5 56.5t176 117q18 19 34.5 44.5t28.5 53.5t18.5 57.5t5.5 57.5q-8 43 -32.5 70t-59 42t-73.5 18.5t-75 -0.5q-101 -16 -222 -100t-255 -233zM1462 1338l-163 -163l-164 164l163 163z" />
    <glyph glyph-name="uni0638.init" unicode="&#x638;" horiz-adv-x="1520" arabic-form="initial" 
d="M378 196q23 -1 47.5 -0.5t48.5 0.5q75 0 158.5 1.5t172 18t179.5 54.5t181 112q56 47 78.5 103.5t11.5 113.5q-7 40 -32.5 68t-60 44.5t-74.5 20.5t-77 -4q-103 -23 -222.5 -105t-255.5 -231q-25 -27 -46.5 -53t-42.5 -51zM-102 98q0 20 8 37.5t21.5 31t31.5 21.5t38 8h9
h142q14 22 47.5 81t100.5 143q11 64 16.5 157.5t6.5 220.5q1 125 -5 244.5t-18 236.5q-11 118 -17 175.5t-6 58.5l202 36q55 -417 45 -887q241 224 460 262q51 8 100.5 7.5t96.5 -11.5t90 -34t81 -60q45 -45 70 -97.5t30 -118.5q4 -54 -7.5 -107.5t-32.5 -101.5t-48 -88
t-54 -68l-4 -6q-89 -80 -182 -127t-184 -72.5t-177 -33t-161 -7.5l-592 1h-9q-20 0 -38 7.5t-31.5 20.5t-21.5 31t-8 39zM1211 1343l-163 -163l-164 164l163 163z" />
    <glyph glyph-name="uni0638.medi" unicode="&#x638;" horiz-adv-x="1570" arabic-form="medial" 
d="M388 196q75 0 145.5 -1t137.5 1.5t130.5 12t126 30t123.5 55t122 88.5q18 18 34.5 43.5t28.5 54t18.5 58.5t5.5 58q-7 42 -32 69t-59.5 42t-73.5 19.5t-74 1.5q-102 -18 -222 -102.5t-256 -232.5q-24 -29 -46 -54.5t-42 -51.5zM-106 98q0 42 28 70t70 28h8h144
q14 21 53 78.5t101 132.5l7 10q10 12 15 56t6.5 109t0.5 147t-5 170t-9.5 177.5t-12 170.5t-13.5 148t-14 110l195 36q32 -203 47.5 -420t13.5 -462q246 229 461 262q200 32 361 -98q98 -83 107 -215q4 -56 -8 -109.5t-33 -100.5t-48 -86.5t-54 -67.5q-9 -9 -19 -17.5
t-19 -15t-15.5 -11l-6.5 -4.5h334q42 0 70 -27.5t28 -69.5q0 -41 -28 -69.5t-70 -28.5h-1v-1q-75 0 -132.5 -0.5t-114.5 -0.5q-44 0 -91.5 1t-97 5.5t-98.5 13t-95 23.5q-97 -29 -186 -35.5t-168 -6.5h-613q-42 0 -70 28t-28 70zM1220 1354l-163 -163l-164 164l163 163z" />
    <glyph glyph-name="uni0638.fina" unicode="&#x638;" horiz-adv-x="1868" arabic-form="final" 
d="M930 198q60 3 123.5 12t127 30.5t127 57t125.5 90.5q18 19 34.5 44.5t28.5 53.5t18.5 57.5t5.5 57.5q-7 41 -32 68.5t-59.5 43t-74 20t-74.5 -1.5q-101 -16 -222 -100t-255 -233l-151 -191zM1868 0h-919q-21 -1 -41.5 -1h-40.5q-23 0 -49.5 0.5t-76.5 3.5h-5
q-156 8 -311.5 42t-322.5 98l72 185q133 -52 258 -83q21 31 52.5 74t72.5 94l7 10q12 86 18 154t7 134.5t-3 141t-11 173.5q-8 108 -17 200.5t-17 160t-13.5 106t-5.5 39.5l196 36l3 -26t8 -68t11 -96t11.5 -110t11 -110t8.5 -97q4 -56 6.5 -89.5t4 -56.5t2.5 -41.5
t1.5 -43.5t1 -63.5t2.5 -101.5q241 229 461 262q49 9 102 5t104.5 -20t98 -44t82 -66t57 -86t22.5 -104q4 -55 -7.5 -108t-33 -100t-48.5 -87t-54 -68l-1 -2l-2 -2q-14 -13 -28 -24.5t-28 -22.5l346 -2h8q42 0 70 -28t28 -70q0 -41 -28 -69.5t-70 -28.5zM1446 1355
l-163 -163l-164 164l163 163z" />
    <glyph glyph-name="uni063A" unicode="&#x63a;" horiz-adv-x="1548" arabic-form="isolated" 
d="M828 -675q-74 0 -151 12t-151.5 39t-144.5 71.5t-130 109.5q-81 88 -117 202.5t-28 245.5q5 101 41.5 192.5t102.5 176.5q112 141 291 231q21 12 42.5 21.5t44.5 19.5l-6 4q-136 94 -152 265q-10 90 15 171.5t84 148.5q63 72 147 113t178 45q155 7 315 -96
q56 -37 88.5 -67.5t37.5 -33.5l-144 -137q-41 40 -88 71q-40 26 -92 47t-107 19q-54 -3 -102.5 -25.5t-82.5 -64.5q-21 -25 -39.5 -67t-13.5 -105q8 -80 68 -122q50 -33 135.5 -50t197.5 -1q46 6 87.5 12.5t73.5 11.5q37 6 69 12l42 -192q-2 0 -21.5 -3.5t-54 -9t-81 -13.5
t-101.5 -17q-87 -14 -151.5 -28.5t-116 -30t-94.5 -34t-88 -40.5q-24 -11 -56 -30.5t-67.5 -47t-70.5 -63.5t-63.5 -80.5t-47.5 -98t-23 -116.5q-5 -91 20.5 -164t74.5 -128.5t117 -92.5t147.5 -56t166.5 -19t173 18.5t167 55.5t150 94l115 -166q-82 -68 -161 -109
t-155 -63.5t-148.5 -30t-141.5 -7.5zM1022 1725l-163 -163l-164 164l163 163z" />
    <glyph glyph-name="uni063A.init" unicode="&#x63a;" horiz-adv-x="1089" arabic-form="initial" 
d="M876 604q-34 37 -79 67q-38 26 -92 47t-122 21q-58 0 -102 -19.5t-73.5 -52.5t-44.5 -75.5t-15 -88.5q0 -63 28 -114t74.5 -87t107.5 -54t128 -14q60 4 114 10.5t96 14.5q49 8 92 18l24 -190q-56 -15 -127.5 -30t-167 -27t-218 -20t-281.5 -8l-218 -2q-42 0 -71 28
t-29 70t29 70t71 28l284 3q-73 66 -102.5 140.5t-29.5 163.5q0 88 32.5 166.5t90.5 137.5t136.5 93.5t171.5 34.5q46 0 89 -7.5t81 -20.5t71 -29t60 -33q64 -40 115 -90zM666 1331l-163 -163l-164 164l163 163z" />
    <glyph glyph-name="uni063A.medi" unicode="&#x63a;" horiz-adv-x="1144" arabic-form="medial" 
d="M1138 196q20 0 38 -8t31.5 -21.5t21.5 -31.5t8 -39q0 -41 -29 -69t-70 -28q-160 0 -297 29t-247 94q-63 -30 -137.5 -53t-153 -39t-158 -23.5t-152.5 -7.5q-41 0 -70 28t-29 69q0 21 8 39t21.5 31.5t31.5 21.5t38 8q51 0 108.5 4.5t113.5 12.5t106 19.5t87 26.5
q-39 36 -79 79t-81 90.5t-82 97.5t-83 98l10 139q51 46 106.5 77t109.5 50.5t105 30t93 14.5q102 11 198.5 -2t177.5 -47q53 -24 86 -51.5t51 -55.5t24.5 -52.5t6.5 -42.5q6 -47 -16.5 -106t-61.5 -119t-90 -116t-103 -95q68 -26 162 -39t196 -13zM596 357q28 15 58 39.5
t58.5 54t54 61.5t44.5 62.5t30.5 56t11.5 42.5q-52 34 -120 52t-142 18t-149 -18t-139 -55q83 -101 152 -178t141 -135zM761 1318l-163 -163l-164 164l163 163z" />
    <glyph glyph-name="uni063A.fina" unicode="&#x63a;" horiz-adv-x="1351" arabic-form="final" 
d="M662 -587q60 -9 135.5 -9t155 13t156.5 41t139 73l102 -170q-73 -44 -135 -73.5t-124 -47.5t-129 -25.5t-150 -7.5q-92 0 -187.5 16.5t-183.5 54t-163.5 98.5t-127.5 150q-33 55 -48 124t-14 140.5t17 140t45 122.5q31 55 75.5 104.5t97 91t111.5 75t118 57.5
q-75 68 -135 130.5t-102 108.5l-26 30l-12 122q32 49 78 84.5t95.5 60.5t97.5 40.5t84 24.5q55 12 111 18.5t109.5 6t103 -8t91.5 -21.5q105 -32 160 -97t52 -153q-4 -173 -156 -293q-75 -59 -166 -101q97 -59 200 -98t211 -39q20 0 38 -8.5t31 -22t20.5 -31t7.5 -37.5
q0 -42 -28 -69.5t-69 -28.5q-82 0 -161 17.5t-156.5 49.5t-154 76.5t-153.5 98.5q-77 -30 -155 -70t-141 -94t-103 -123.5t-40 -159.5q0 -51 18 -97t48.5 -86.5t69.5 -74.5t81 -59.5t84 -42t77 -21.5zM497 716q50 -52 113.5 -117t142.5 -131q74 31 131 60t96 60.5t59 66.5
t22 77q0 10 -6.5 19t-17 16.5t-23.5 13t-25 9.5q-56 17 -123 19t-134.5 -9t-129 -32.5t-105.5 -51.5zM916 1341l-163 -163l-164 164l163 163z" />
    <glyph glyph-name="uni06A9.init" unicode="&#x6a9;" horiz-adv-x="936" arabic-form="initial" 
d="M-120 97q0 42 30 70.5t78 28.5h34q15 0 33.5 -0.5t37.5 0.5q60 0 125 1.5t124.5 12t108 33t76.5 64.5q33 50 38.5 109t-12.5 128q-11 41 -54.5 104.5t-107.5 136t-143 148.5t-161 142l23 205l822 352l77 -182l-716 -301q49 -42 107 -94t115 -115q76 -84 125 -160.5
t76 -145.5t36 -130.5t4 -115.5t-20.5 -100t-36.5 -84q-90 -159 -301 -198q-38 -7 -87 -7l-323 1q-48 0 -78 28t-30 69z" />
    <glyph glyph-name="uni06A9.medi" unicode="&#x6a9;" horiz-adv-x="1169" arabic-form="medial" 
d="M-98 98q0 20 8 38t21.5 31.5t31.5 21t38 7.5h9h330q40 0 80.5 16t73 43t54 61.5t24.5 70.5q5 57 -14.5 119.5t-55.5 126.5t-84 127t-100.5 119.5t-105.5 104t-98 82.5l26 221l884 381l77 -182l-793 -333q76 -62 133.5 -123t103.5 -123t82.5 -124t70 -124t66.5 -125
t71 -127q29 -48 62 -86.5t71.5 -65.5t85 -42.5t102.5 -16.5h42q42 0 70 -28.5t28 -69.5q0 -42 -28 -70t-70 -28h-8q-72 0 -126.5 9t-106.5 26q-71 26 -131 76t-105 108q-35 -64 -86 -112q-33 -29 -69.5 -49t-76 -32t-80.5 -18t-82 -8h-326q-41 0 -70 28t-29 70z" />
    <glyph glyph-name="uni0641" unicode="&#x641;" horiz-adv-x="1953" arabic-form="isolated" 
d="M1714 1013q46 -50 84 -124t60.5 -161.5t26 -183.5t-19.5 -192q-3 -14 -11 -37t-26.5 -51.5t-49.5 -60.5t-80 -62q-55 -35 -135.5 -61.5t-177.5 -44t-206.5 -26t-223.5 -8.5q-606 0 -784 304q-40 67 -54.5 136.5t-12 135t16 124.5t29 103.5t29 72t14.5 31.5l174 -95
q0 -1 -9 -19.5t-20 -50t-21.5 -72.5t-13.5 -86.5t5.5 -92t33.5 -88.5q30 -50 79.5 -88.5t121 -65t166.5 -41.5t217 -18q144 -4 248.5 4t179.5 23t125.5 34.5t85.5 38.5q33 17 53.5 33.5t32.5 30.5h-51h-48.5t-50.5 3q-199 12 -294 131q-15 18 -29 43.5t-22.5 59t-10.5 75
t6 91.5q11 64 37 130.5t66.5 120.5t95.5 88.5t124 34.5q133 0 240 -119zM1514 555q104 -6 173 0q-9 50 -22.5 111t-37 116.5t-60.5 98t-93 54.5q-16 3 -36.5 -12t-39.5 -42.5t-35 -63t-23 -72.5t-3 -72.5t25 -61.5q18 -24 58 -38.5t94 -17.5zM1646 1465l-163 -163l-164 164
l163 163z" />
    <glyph glyph-name="uni0641.init" unicode="&#x641;" horiz-adv-x="903" arabic-form="initial" 
d="M428 927q-14 0 -33 -13.5t-37.5 -40.5t-34.5 -66t-24 -90q-14 -75 17 -112q20 -24 58.5 -39t92.5 -18q51 -2 95.5 -2t77.5 2q-7 97 -37.5 183.5t-81.5 142.5q-16 18 -40.5 35.5t-52.5 17.5zM-101 98q0 42 29 70t71 28q111 0 204.5 10.5t167 27t124.5 37t75 39.5
q13 11 21 20l16 18h-101q-54 0 -105 8.5t-96 25.5t-82 42.5t-63 58.5q-14 18 -28 43.5t-23 59t-11 75t6 91.5q14 77 41 140.5t66 113.5q45 59 101 89t116 30q132 0 240 -117q46 -51 81.5 -118t57.5 -143.5t30 -158.5t-1 -162h-1q-6 -40 -17 -81q-3 -12 -9 -32.5t-20 -46
t-37.5 -54t-59.5 -56.5q-48 -38 -121.5 -67t-162.5 -48.5t-190 -29.5t-204 -11h-17q-41 0 -69.5 28.5t-28.5 69.5zM560 1470l-163 -163l-164 164l163 163z" />
    <glyph glyph-name="uni0641.medi" unicode="&#x641;" horiz-adv-x="968" arabic-form="medial" 
d="M481 741q-27 0 -58.5 -19.5t-58.5 -55t-44.5 -85.5t-17.5 -112q0 -47 44.5 -92.5t127.5 -83.5l16 -7q59 26 90 70.5t41 95t2 102t-28.5 93t-50.5 68t-63 26.5zM-152 98q0 21 7.5 39t21 31t31 20.5t38.5 7.5q35 0 75.5 1t79.5 3t74.5 5t60.5 6q-130 114 -130 258
q0 93 28.5 177t82.5 152t123.5 105.5t142.5 34.5q89 -4 156 -42t111.5 -98t65.5 -135.5t17.5 -154t-32 -154t-82.5 -134.5q30 -6 66 -10.5t74 -7.5t76 -4.5t71 -1.5q42 0 70.5 -28t28.5 -70q0 -21 -7.5 -38.5t-21 -31t-31.5 -21t-39 -7.5h-9q-31 0 -67 1t-73 3.5t-72 5.5
t-64 8q-60 10 -115.5 23t-108.5 30q-47 -18 -109 -31t-133 -22t-148 -13.5t-153 -4.5h-8q-42 0 -70 28t-28 70zM619 1346l-163 -163l-164 164l163 163z" />
    <glyph glyph-name="uni0641.fina" unicode="&#x641;" horiz-adv-x="2101" arabic-form="final" 
d="M1877 242q-7 -5 -11 -11t-9 -11q61 -11 123 -17.5t128 -6.5q41 0 70 -28t29 -70q0 -20 -8 -38t-21.5 -31.5t-31.5 -21t-38 -7.5q-129 0 -248.5 18.5t-222.5 53.5q-16 -5 -29.5 -10t-29.5 -10q-49 -18 -118 -32t-150 -23.5t-170 -14t-179 -4.5q-306 1 -507.5 76.5
t-291.5 228.5q-40 67 -54.5 136.5t-12.5 135t15.5 124.5t29.5 103.5t29.5 72t14.5 31.5l174 -95q0 -1 -9 -19.5t-20.5 -50t-22 -72.5t-13 -86t5 -92t33.5 -89q30 -50 77.5 -88t117 -63.5t163 -39.5t215.5 -17q93 -3 164.5 -1.5t127.5 6t101 11.5t84 15q-137 113 -137 264
q0 93 28.5 176.5t82.5 151.5q54 67 122.5 104t144.5 37q68 0 127.5 -24.5t105.5 -74.5q18 -19 37 -46t34.5 -64t25 -85t9.5 -108q0 -175 -85 -294zM1629 286q43 25 69.5 54t41 61t19 66t4.5 69q0 72 -17.5 112.5t-40.5 60.5t-46.5 25t-35.5 5q-28 0 -59.5 -19t-58 -54
t-44 -85t-17.5 -112q0 -46 43.5 -92t128.5 -84zM1747 1335l-163 -163l-164 164l163 163z" />
    <glyph glyph-name="veh.isol" unicode="&#x6a4;" horiz-adv-x="1959" arabic-form="isolated" 
d="M1714 1013q46 -50 84 -124t60.5 -161.5t26 -183.5t-19.5 -192q-3 -14 -11 -37t-26.5 -51.5t-49.5 -60.5t-80 -62q-55 -35 -135.5 -61.5t-177.5 -44t-206.5 -26t-223.5 -8.5q-606 0 -784 304q-40 67 -54.5 136.5t-12 135t16 124.5t29 103.5t29 72t14.5 31.5l174 -95
q0 -1 -9 -19.5t-20 -50t-21.5 -72.5t-13.5 -86.5t5.5 -92t33.5 -88.5q30 -50 79.5 -88.5t121 -65t166.5 -41.5t217 -18q144 -4 248.5 4t179.5 23t125.5 34.5t85.5 38.5q33 17 53.5 33.5t32.5 30.5h-51h-48.5t-50.5 3q-199 12 -294 131q-15 18 -29 43.5t-22.5 59t-10.5 75
t6 91.5q11 64 37 130.5t66.5 120.5t95.5 88.5t124 34.5q133 0 240 -119zM1514 555q104 -6 173 0q-9 50 -22.5 111t-37 116.5t-60.5 98t-93 54.5q-16 3 -36.5 -12t-39.5 -42.5t-35 -63t-23 -72.5t-3 -72.5t25 -61.5q18 -24 58 -38.5t94 -17.5zM1483 1487l162 162l164 -164
l-162 -162zM1077 1488l162 163l164 -164l-162 -163zM1300 1778l148 148l149 -149l-148 -148z" />
    <glyph glyph-name="veh.init" unicode="&#x6a4;" horiz-adv-x="896" arabic-form="initial" 
d="M428 927q-14 0 -33 -13.5t-37.5 -40.5t-34.5 -66t-24 -90q-14 -75 17 -112q20 -24 58.5 -39t92.5 -18q51 -2 95.5 -2t77.5 2q-7 97 -37.5 183.5t-81.5 142.5q-16 18 -40.5 35.5t-52.5 17.5zM-101 98q0 42 29 70t71 28q111 0 204.5 10.5t167 27t124.5 37t75 39.5
q13 11 21 20l16 18h-101q-54 0 -105 8.5t-96 25.5t-82 42.5t-63 58.5q-14 18 -28 43.5t-23 59t-11 75t6 91.5q14 77 41 140.5t66 113.5q45 59 101 89t116 30q132 0 240 -117q46 -51 81.5 -118t57.5 -143.5t30 -158.5t-1 -162h-1q-6 -40 -17 -81q-3 -12 -9 -32.5t-20 -46
t-37.5 -54t-59.5 -56.5q-48 -38 -121.5 -67t-162.5 -48.5t-190 -29.5t-204 -11h-17q-41 0 -69.5 28.5t-28.5 69.5zM385 1388l162 162l164 -164l-162 -162zM-21 1389l162 163l164 -164l-162 -163zM202 1679l148 148l149 -149l-148 -148z" />
    <glyph glyph-name="veh.medi" unicode="&#x6a4;" horiz-adv-x="963" arabic-form="medial" 
d="M481 741q-27 0 -58.5 -19.5t-58.5 -55t-44.5 -85.5t-17.5 -112q0 -47 44.5 -92.5t127.5 -83.5l16 -7q59 26 90 70.5t41 95t2 102t-28.5 93t-50.5 68t-63 26.5zM-152 98q0 21 7.5 39t21 31t31 20.5t38.5 7.5q35 0 75.5 1t79.5 3t74.5 5t60.5 6q-130 114 -130 258
q0 93 28.5 177t82.5 152t123.5 105.5t142.5 34.5q89 -4 156 -42t111.5 -98t65.5 -135.5t17.5 -154t-32 -154t-82.5 -134.5q30 -6 66 -10.5t74 -7.5t76 -4.5t71 -1.5q42 0 70.5 -28t28.5 -70q0 -21 -7.5 -38.5t-21 -31t-31.5 -21t-39 -7.5h-9q-31 0 -67 1t-73 3.5t-72 5.5
t-64 8q-60 10 -115.5 23t-108.5 30q-47 -18 -109 -31t-133 -22t-148 -13.5t-153 -4.5h-8q-42 0 -70 28t-28 70zM487 1261l162 162l164 -164l-162 -162zM81 1262l162 163l164 -164l-162 -163zM304 1552l148 148l149 -149l-148 -148z" />
    <glyph glyph-name="veh.fina" unicode="&#x6a4;" horiz-adv-x="2106" arabic-form="final" 
d="M1877 242q-7 -5 -11 -11t-9 -11q61 -11 123 -17.5t128 -6.5q41 0 70 -28t29 -70q0 -20 -8 -38t-21.5 -31.5t-31.5 -21t-38 -7.5q-129 0 -248.5 18.5t-222.5 53.5q-16 -5 -29.5 -10t-29.5 -10q-49 -18 -118 -32t-150 -23.5t-170 -14t-179 -4.5q-306 1 -507.5 76.5
t-291.5 228.5q-40 67 -54.5 136.5t-12.5 135t15.5 124.5t29.5 103.5t29.5 72t14.5 31.5l174 -95q0 -1 -9 -19.5t-20.5 -50t-22 -72.5t-13 -86t5 -92t33.5 -89q30 -50 77.5 -88t117 -63.5t163 -39.5t215.5 -17q93 -3 164.5 -1.5t127.5 6t101 11.5t84 15q-137 113 -137 264
q0 93 28.5 176.5t82.5 151.5q54 67 122.5 104t144.5 37q68 0 127.5 -24.5t105.5 -74.5q18 -19 37 -46t34.5 -64t25 -85t9.5 -108q0 -175 -85 -294zM1629 286q43 25 69.5 54t41 61t19 66t4.5 69q0 72 -17.5 112.5t-40.5 60.5t-46.5 25t-35.5 5q-28 0 -59.5 -19t-58 -54
t-44 -85t-17.5 -112q0 -46 43.5 -92t128.5 -84zM1625 1274l162 162l164 -164l-162 -162zM1219 1275l162 163l164 -164l-162 -163zM1442 1565l148 148l149 -149l-148 -148z" />
    <glyph glyph-name="uni0642.init" unicode="&#x642;" horiz-adv-x="908" arabic-form="initial" 
d="M428 927q-14 0 -33 -13.5t-37.5 -40.5t-34.5 -66t-24 -90q-14 -75 17 -112q20 -24 58.5 -39t92.5 -18q51 -2 95.5 -2t77.5 2q-7 97 -37.5 183.5t-81.5 142.5q-16 18 -40.5 35.5t-52.5 17.5zM-101 98q0 42 29 70t71 28q111 0 204.5 10.5t167 27t124.5 37t75 39.5
q13 11 21 20l16 18h-101q-54 0 -105 8.5t-96 25.5t-82 42.5t-63 58.5q-14 18 -28 43.5t-23 59t-11 75t6 91.5q14 77 41 140.5t66 113.5q45 59 101 89t116 30q132 0 240 -117q46 -51 81.5 -118t57.5 -143.5t30 -158.5t-1 -162h-1q-6 -40 -17 -81q-3 -12 -9 -32.5t-20 -46
t-37.5 -54t-59.5 -56.5q-48 -38 -121.5 -67t-162.5 -48.5t-190 -29.5t-204 -11h-17q-41 0 -69.5 28.5t-28.5 69.5zM382 1481l-162 -162l-164 163l162 163zM760 1480l-162 -163l-164 164l162 162z" />
    <glyph glyph-name="uni0642.medi" unicode="&#x642;" horiz-adv-x="1062" arabic-form="medial" 
d="M534 741q-27 0 -58.5 -19.5t-58.5 -55t-44.5 -85.5t-17.5 -112q0 -47 44.5 -92.5t127.5 -83.5l16 -7q59 26 90 70.5t41 95t2 102t-28.5 93t-50.5 68t-63 26.5zM-99 98q0 21 7.5 39t21 31t31 20.5t38.5 7.5q35 0 75.5 1t79.5 3t74.5 5t60.5 6q-130 114 -130 258
q0 93 28.5 177t82.5 152t123.5 105.5t142.5 34.5q89 -4 156 -42t111.5 -98t65.5 -135.5t17.5 -154t-32 -154t-82.5 -134.5q30 -6 66 -10.5t74 -7.5t76 -4.5t71 -1.5q42 0 70.5 -28t28.5 -70q0 -21 -7.5 -38.5t-21 -31t-31.5 -21t-39 -7.5h-9q-31 0 -67 1t-73 3.5t-72 5.5
t-64 8q-60 10 -115.5 23t-108.5 30q-47 -18 -109 -31t-133 -22t-148 -13.5t-153 -4.5h-8q-42 0 -70 28t-28 70zM503 1329l-162 -162l-164 163l162 163zM881 1328l-162 -163l-164 164l162 162z" />
    <glyph glyph-name="uni0642" unicode="&#x642;" horiz-adv-x="1592" arabic-form="isolated" 
d="M1171 -3q-26 0 -53.5 1t-55.5 3q-109 8 -191 43t-131 100q-92 118 -61 291q14 85 43.5 154.5t73.5 125.5q49 63 109 96t124 33q72 0 136.5 -32.5t124.5 -96.5q50 -56 88 -129t62 -156.5t33 -173t0 -179.5h2q0 -2 -2.5 -33.5t-12.5 -81t-29.5 -111.5t-53.5 -126
q-41 -79 -95.5 -141.5t-120.5 -107.5q-84 -59 -182 -87t-214 -28h-2q-197 0 -345 76q-78 39 -139 94.5t-102 127.5q-52 85 -74.5 186t-13.5 215q8 117 47 238t107 249l175 -94q-55 -102 -87.5 -199.5t-42 -186t4.5 -166t52 -141.5q59 -98 167 -149.5t251 -51.5h2
q103 -8 187 26.5t148 96t106 144t60 172.5q-22 0 -45.5 -0.5t-49.5 -0.5zM1029 645q-36 0 -78 -52q-29 -35 -47.5 -83.5t-29.5 -108.5q-15 -90 21 -135q15 -20 38 -32t48.5 -19.5t50 -11t42.5 -5.5q63 -4 115.5 -3.5t90.5 3.5q-3 64 -15 121t-30.5 106t-42 88.5t-48.5 68.5
q-21 22 -50.5 42.5t-64.5 20.5zM980 1166l-162 -162l-164 163l162 163zM1358 1165l-162 -163l-164 164l162 162z" />
    <glyph glyph-name="uni0642.fina" unicode="&#x642;" horiz-adv-x="1565" arabic-form="final" 
d="M1022 648q-36 0 -78 -53q-29 -35 -47.5 -83t-29.5 -107q-15 -92 21 -136q15 -20 37.5 -32.5t47.5 -20t49.5 -11t42.5 -5.5q63 -3 114.5 -4t93.5 0q-3 64 -15 121.5t-31 107t-42.5 90t-49.5 70.5q-20 21 -49 42t-64 21zM1232 -3q-38 0 -83 1.5t-96 4.5q-109 8 -189.5 44
t-131.5 99q-91 119 -60 292q14 84 43.5 154.5t72.5 124.5q50 63 109 96t125 33q143 0 260 -129q43 -47 76.5 -105.5t57.5 -125.5t37.5 -140t16.5 -149q20 -1 45 -1h56q41 0 70 -28t29 -70q0 -20 -8 -38t-21.5 -31.5t-31.5 -21t-38 -7.5h-9h-105q-8 -51 -28.5 -122.5
t-59.5 -148.5q-81 -157 -214 -251q-167 -115 -398 -115q-197 0 -348 77q-155 77 -241 221q-51 85 -73 186t-14 215q8 116 46.5 237t107.5 251l175 -93q-111 -208 -129.5 -386.5t56.5 -306.5q60 -99 167 -150.5t253 -51.5q301 0 433 252q26 50 42 97.5t24 85.5h-24zM988 1135
l-162 -162l-164 163l162 163zM1366 1134l-162 -163l-164 164l162 162z" />
    <glyph glyph-name="uni0646.init" unicode="&#x646;" horiz-adv-x="706" arabic-form="initial" 
d="M-105 98q0 42 28.5 70t69.5 28h103q53 -2 102 0.5t90 14.5t72.5 36.5t51.5 66.5q20 43 11.5 122.5t-40.5 185.5q-11 32 -25.5 69.5t-28.5 69.5q-16 38 -33 75l178 88q0 -1 9.5 -20.5t23.5 -52.5t31 -76.5t32 -92.5q93 -287 23 -448q-71 -161 -252 -212
q-54 -16 -105.5 -19t-96.5 -3h-137h-9q-41 0 -69.5 28t-28.5 70zM493 1248l-163 -163l-164 164l163 163z" />
    <glyph glyph-name="uni0646.medi" unicode="&#x646;" horiz-adv-x="705" arabic-form="medial" 
d="M-94 98q0 41 28 69.5t70 28.5h17q168 0 244 60.5t76 179.5q0 28 -3 64t-9 75t-14.5 79.5t-19.5 78.5l188 53q13 -45 23 -93t17 -93.5t10.5 -87.5t3.5 -76v-5q0 -37 7 -78t25.5 -76t51 -58t83.5 -23q20 0 38 -7.5t31.5 -21t21.5 -31.5t8 -38q0 -21 -8 -38.5t-21.5 -31
t-31 -21t-37.5 -7.5q-50 0 -91.5 9t-75 25.5t-60 39.5t-47.5 50q-63 -62 -163.5 -93t-246.5 -31h-17q-42 0 -70 28t-28 70zM557 1126l-163 -163l-164 164l163 163z" />
    <glyph glyph-name="uni0646" unicode="&#x646;" horiz-adv-x="1592" arabic-form="isolated" 
d="M741 -688q-265 0 -433 150q-79 69 -127.5 162t-64.5 204q-10 61 -9 122.5t8 118.5t19 107.5t24 90.5q31 102 67.5 174.5t60.5 107.5l159 -117q-13 -18 -30 -51.5t-34.5 -78t-33.5 -98.5t-26.5 -112.5t-13.5 -118.5t5 -117q4 -26 16 -61t34.5 -72t57 -73.5t84 -66
t115.5 -49t151 -23.5q5 0 4 -0.5t-3 -0.5h-3t4 1q212 9 342 84t176 214q26 86 27.5 173t-12 167t-37 149.5t-46.5 121t-40 81t-18 29.5l166 106q3 -5 25 -42t50 -99.5t56 -146t43 -180.5t11.5 -204t-38.5 -215q-29 -94 -86 -169.5t-141 -130.5q-91 -63 -208 -96t-262 -40
q-10 0 -20 -0.5t-19 -0.5zM982 641l-163 -163l-164 164l163 163z" />
    <glyph glyph-name="uni0646.fina" unicode="&#x646;" horiz-adv-x="1714" arabic-form="final" 
d="M1707 0q-133 0 -239 62q4 -76 -4.5 -154.5t-33.5 -159.5q-29 -92 -86 -168.5t-141 -130.5q-92 -63 -208 -95.5t-261 -40.5h-41q-131 0 -239 38t-193 110q-77 69 -126.5 163t-65.5 204q-8 61 -7.5 122t7.5 118t18 108t24 92q32 102 67 173.5t60 107.5l160 -116
q-13 -18 -30.5 -51.5t-35 -78.5t-33.5 -98.5t-26.5 -112t-13 -119t5.5 -117.5q4 -26 14 -62t29 -74.5t49.5 -76.5t76.5 -67.5t109.5 -48t148.5 -18.5h15h9.5t9.5 1q211 11 341 85.5t174 212.5q27 87 28.5 173t-11.5 164.5t-36 146.5t-46 121q-11 20 -20 41t-20 43
q-8 16 -14 24t-6 10l167 106q3 -4 22.5 -40t48.5 -96q55 -104 103.5 -165t92.5 -92t83 -39.5t74 -8.5q42 0 70.5 -28t28.5 -70q0 -41 -28.5 -69.5t-70.5 -28.5zM933 574l-163 -163l-164 164l163 163z" />
    <glyph glyph-name="uni06C0" unicode="&#x6c0;" horiz-adv-x="983" arabic-form="isolated" 
d="M485 0q-5 0 -24.5 1t-48.5 5.5t-65.5 14t-73.5 27.5q-95 44 -144.5 120t-49.5 179q0 180 163 377q33 39 63.5 70t53.5 52q-30 27 -48 42t-18 16l126 153q1 -2 21.5 -19t52.5 -47t73 -70.5t84 -88.5q122 -139 182.5 -260.5t60.5 -224.5t-45.5 -179t-133.5 -119
q-32 -16 -65 -25.5t-63 -15t-56.5 -7t-44.5 -1.5zM497 704q-29 -26 -67.5 -66t-72.5 -88t-57.5 -100.5t-23.5 -102.5q0 -15 2.5 -31t11 -31.5t24.5 -30.5t43 -27q19 -9 39 -14.5t37 -8.5t31 -4t21 -1q9 0 25.5 0.5t36 3t40 8t39.5 14.5q37 20 53.5 48.5t16.5 73.5
q0 65 -50 156t-145 197q-1 1 -1.5 2t-2.5 2zM525 1556q-12 3 -27 6q-13 2 -29.5 4.5t-35.5 2.5q-15 0 -30.5 -2.5t-31.5 -9.5v2q-32 -14 -51.5 -42.5t-19.5 -61.5q0 -17 8 -36l-1 1q14 -35 49.5 -58.5t78.5 -23.5q11 0 21 1t21 6q26 8 51 21t45 25q23 14 43 29l59 -78
q-39 -29 -98 -62t-144 -80l-227 -126l-48 87l179 100q-41 17 -72.5 49t-48.5 71q-14 34 -14 74q0 31 9.5 60.5t27 55t42 45.5t54.5 32q47 19 98 19q23 0 44 -3t38 -7q19 -4 38 -9z" />
    <glyph glyph-name="uni06C0.fina" unicode="&#x6c0;" horiz-adv-x="1090" arabic-form="final" 
d="M642 702q-24 -10 -57 -24.5t-68.5 -33t-70 -41t-62 -48t-44.5 -55t-17 -61.5q0 -33 20.5 -53.5t53 -32t73.5 -15.5t82.5 -3.5t79 4.5t63.5 9q-12 58 -24.5 142t-28.5 212zM544 140q-258 0 -359 125q-28 34 -39.5 72.5t-13 75.5t4.5 69t15 53q27 56 64.5 103t80 84.5
t88 67t88 51.5t80.5 38t66 26q-8 76 -11.5 111.5t-3.5 36.5l196 41v1q1 -9 4 -37t7 -66.5t8.5 -82t8.5 -81.5t7 -66t4 -35q15 -129 28 -211t23 -130.5t16.5 -69.5t9.5 -27q12 -27 27.5 -45t36.5 -28.5t48 -15t62 -4.5q41 0 70 -28t29 -70q0 -20 -8 -38t-21.5 -31.5
t-31.5 -21t-38 -7.5q-38 0 -90.5 6.5t-104.5 30.5q-80 38 -132 122q-62 -10 -116 -14.5t-103 -4.5zM674 1548q-12 3 -27 6q-13 2 -29.5 4.5t-35.5 2.5q-15 0 -30.5 -2.5t-31.5 -9.5v2q-32 -14 -51.5 -42.5t-19.5 -61.5q0 -17 8 -36l-1 1q14 -35 49.5 -58.5t78.5 -23.5
q11 0 21 1t21 6q26 8 51 21t45 25q23 14 43 29l59 -78q-39 -29 -98 -62t-144 -80l-227 -126l-48 87l179 100q-41 17 -72.5 49t-48.5 71q-14 34 -14 74q0 31 9.5 60.5t27 55t42 45.5t54.5 32q47 19 98 19q23 0 44 -3t38 -7q19 -4 38 -9z" />
    <glyph glyph-name="uni0624" unicode="&#x624;" horiz-adv-x="1043" arabic-form="isolated" 
d="M518 650q-29 0 -55 -22.5t-46.5 -57.5t-34.5 -78.5t-19.5 -86t-0.5 -79t22 -57.5q15 -20 38 -32.5t48 -20t49.5 -11t42.5 -4.5q63 -4 115.5 -3t91.5 4q-3 63 -15 120.5t-30.5 106.5t-42.5 88.5t-49 68.5q-10 10 -22.5 21.5t-27 21t-31 15.5t-33.5 6zM123 -702l-46 193
q154 31 276 86t209 124t137.5 146.5t61.5 152.5q-42 -1 -99.5 -0.5t-112.5 5.5q-217 14 -321 142q-46 58 -58.5 134t-1 155.5t42.5 154t73 128.5q50 63 110 95.5t124 32.5q142 0 261 -128q51 -56 89.5 -129.5t62.5 -157.5t32.5 -175t-0.5 -182q-11 -110 -49 -205.5
t-97 -176.5t-136.5 -147t-167 -115.5t-188.5 -83t-202 -49.5zM502 1338q-12 3 -27 6q-13 2 -29.5 4.5t-35.5 2.5q-15 0 -30.5 -2.5t-31.5 -9.5v2q-32 -14 -51.5 -42.5t-19.5 -61.5q0 -17 8 -36l-1 1q14 -35 49.5 -58.5t78.5 -23.5q11 0 21 1t21 6q26 8 51 21t45 25
q23 14 43 29l59 -78q-39 -29 -98 -62t-144 -80l-227 -126l-48 87l179 100q-41 17 -72.5 49t-48.5 71q-14 34 -14 74q0 31 9.5 60.5t27 55t42 45.5t54.5 32q47 19 98 19q23 0 44 -3t38 -7q19 -4 38 -9z" />
    <glyph glyph-name="uni0624.fina" unicode="&#x624;" horiz-adv-x="1058" arabic-form="final" 
d="M124 -702l-46 193q154 31 276 86t209 124t137.5 146.5t61.5 152.5q-42 -1 -99.5 -0.5t-112.5 5.5q-217 14 -321 142q-46 58 -58.5 134t-1 155.5t42.5 154t73 128.5q50 63 110 95.5t124 32.5q142 0 261 -128q42 -47 76 -106t58 -126.5t38 -141t16 -149.5h75q21 0 39 -7.5
t31.5 -21t21.5 -31.5t8 -39q0 -20 -8 -37.5t-21.5 -31t-31.5 -21t-39 -7.5h-90q-30 -148 -108.5 -267.5t-190 -208.5t-248.5 -146t-282 -80zM519 650q-29 0 -55 -22.5t-46.5 -57.5t-34.5 -78.5t-19.5 -86t-0.5 -79t22 -57.5q15 -20 38 -32.5t48 -20t49.5 -11t42.5 -4.5
q63 -4 115.5 -3t91.5 4q-3 63 -15 120.5t-30.5 106.5t-42.5 88.5t-49 68.5q-10 10 -22.5 21.5t-27 21t-31 15.5t-33.5 6zM562 1374q-12 3 -27 6q-13 2 -29.5 4.5t-35.5 2.5q-15 0 -30.5 -2.5t-31.5 -9.5v2q-32 -14 -51.5 -42.5t-19.5 -61.5q0 -17 8 -36l-1 1
q14 -35 49.5 -58.5t78.5 -23.5q11 0 21 1t21 6q26 8 51 21t45 25q23 14 43 29l59 -78q-39 -29 -98 -62t-144 -80l-227 -126l-48 87l179 100q-41 17 -72.5 49t-48.5 71q-14 34 -14 74q0 31 9.5 60.5t27 55t42 45.5t54.5 32q47 19 98 19q23 0 44 -3t38 -7q19 -4 38 -9z" />
    <glyph glyph-name="uni0649.init" unicode="&#x649;" horiz-adv-x="708" arabic-form="initial" 
d="M-105 98q0 42 28.5 70t69.5 28h103q53 -2 102 0.5t90 14.5t72.5 36.5t51.5 66.5q20 43 11.5 122.5t-40.5 185.5q-11 32 -25.5 69.5t-28.5 69.5q-16 38 -33 75l178 88q0 -1 9.5 -20.5t23.5 -52.5t31 -76.5t32 -92.5q93 -287 23 -448q-71 -161 -252 -212
q-54 -16 -105.5 -19t-96.5 -3h-137h-9q-41 0 -69.5 28t-28.5 70z" />
    <glyph glyph-name="uni0649.medi" unicode="&#x649;" horiz-adv-x="705" arabic-form="medial" 
d="M-94 98q0 41 28 69.5t70 28.5h17q168 0 244 60.5t76 179.5q0 28 -3 64t-9 75t-14.5 79.5t-19.5 78.5l188 53q13 -45 23 -93t17 -93.5t10.5 -87.5t3.5 -76v-5q0 -37 7 -78t25.5 -76t51 -58t83.5 -23q20 0 38 -7.5t31.5 -21t21.5 -31.5t8 -38q0 -21 -8 -38.5t-21.5 -31
t-31 -21t-37.5 -7.5q-50 0 -91.5 9t-75 25.5t-60 39.5t-47.5 50q-63 -62 -163.5 -93t-246.5 -31h-17q-42 0 -70 28t-28 70z" />
    <glyph glyph-name="uni064A.init" unicode="&#x64a;" horiz-adv-x="804" arabic-form="initial" 
d="M345 -346l-162 -162l-164 163l162 163zM723 -347l-162 -163l-164 164l162 162zM-149 98q0 42 28.5 70t69.5 28h111q35 -1 76 -0.5t83 4.5t82.5 11.5t74.5 21t60 33.5t39 48q20 43 11.5 122.5t-40.5 185.5q-11 32 -25.5 69.5t-28.5 69.5q-16 38 -33 75l178 88
q0 -1 9.5 -20.5t23.5 -52.5t31 -76.5t32 -92.5q93 -287 23 -448q-71 -161 -252 -212q-27 -8 -69 -12.5t-86 -6.5t-84 -2.5t-62 -0.5h-145h-9q-41 0 -69.5 28t-28.5 70z" />
    <glyph glyph-name="uni064A.medi" unicode="&#x64a;" horiz-adv-x="854" arabic-form="medial" 
d="M-105 98q0 42 28 70.5t70 28.5h76q84 0 161 10t135.5 37t92.5 73.5t31 119.5q-1 28 -4.5 63.5t-9 74.5t-13.5 79.5t-19 79.5l187 53q13 -46 23.5 -93.5t17.5 -93t10.5 -87.5t3.5 -76v-6q0 -37 6.5 -78t25 -76t51 -58t83.5 -23q42 0 71 -28t29 -70q0 -21 -8 -38.5
t-21.5 -31t-31 -21t-37.5 -7.5q-101 0 -167 36.5t-108 91.5q-36 -35 -93 -59.5t-125.5 -39.5t-143.5 -22t-147 -7h-76q-42 0 -70 28t-28 70zM320 -380l-162 -162l-164 163l162 163zM698 -381l-162 -163l-164 164l162 162z" />
    <glyph glyph-name="uni064A" unicode="&#x64a;" horiz-adv-x="1781" arabic-form="isolated" 
d="M1371 832q69 14 132 10t111 -15t77.5 -23t32.5 -13l-87 -183l-19 7.5t-49.5 14t-71 9t-84.5 -6.5q-42 -4 -87.5 -26t-87.5 -57t-78 -79.5t-59.5 -92.5t-31.5 -97t7 -92q13 -37 45.5 -59t76.5 -37t95.5 -26t101.5 -25.5t95 -35.5t76.5 -56.5t45 -88t0.5 -129.5
q-18 -98 -88 -180t-186 -140q-110 -56 -249.5 -85t-303.5 -29q-189 0 -334.5 54.5t-238.5 158.5q-82 94 -115.5 218t-15.5 271q8 65 22 134.5t30.5 135.5t34 125.5t32 105.5t24.5 74t11 32l191 -67q-45 -140 -84 -279t-58 -285q-5 -36 -5.5 -78t8 -85.5t27 -86t51.5 -79.5
q63 -72 169.5 -108t250.5 -36q142 0 256 22.5t194.5 60t125.5 85t50 98.5q2 24 -17 40t-52 28t-76.5 22t-91 23.5t-94.5 32t-87 46t-69.5 67t-40.5 95.5q-16 79 -7.5 157.5t36.5 152t74 139t105.5 118t130.5 90t149 53.5zM782 -993l-162 -162l-164 163l162 163zM1160 -994
l-162 -163l-164 164l162 162z" />
    <glyph glyph-name="uni064A.fina" unicode="&#x64a;" horiz-adv-x="1687" arabic-form="final" 
d="M830 -652q-87 0 -180 8.5t-179 34.5t-158 73.5t-118 125.5q-108 158 -96 410q7 137 49 299t121 353l183 -74q-128 -314 -151.5 -535t57.5 -344q41 -59 101.5 -90.5t126 -45.5t130 -16t114.5 -2q29 0 82 4.5t115 15.5t126.5 29.5t117 45.5t85.5 64.5t33 85.5
q0 12 -11 28.5t-35.5 35.5t-63.5 40t-96 42q-35 12 -69.5 22.5t-64.5 18t-55 13.5t-41 9l-22 4l15 194l770 -1q41 0 70 -28t29 -70t-29 -70t-70 -28h-239q34 -28 55.5 -56.5t33.5 -55.5t16 -52t4 -46q-1 -85 -39 -151t-100 -115t-141 -82.5t-162.5 -54.5t-165.5 -30t-148 -9
zM763 -929l-162 -162l-164 163l162 163zM1141 -930l-162 -163l-164 164l162 162z" />
    <glyph glyph-name="uni06CC" unicode="&#x6cc;" horiz-adv-x="1759" arabic-form="isolated" 
d="M1371 832q69 14 132 10t111 -15t77.5 -23t32.5 -13l-87 -183l-19 7.5t-49.5 14t-71 9t-84.5 -6.5q-42 -4 -87.5 -26t-87.5 -57t-78 -79.5t-59.5 -92.5t-31.5 -97t7 -92q13 -37 45.5 -59t76.5 -37t95.5 -26t101.5 -25.5t95 -35.5t76.5 -56.5t45 -88t0.5 -129.5
q-18 -98 -88 -180t-186 -140q-110 -56 -249.5 -85t-303.5 -29q-189 0 -334.5 54.5t-238.5 158.5q-82 94 -115.5 218t-15.5 271q8 65 22 134.5t30.5 135.5t34 125.5t32 105.5t24.5 74t11 32l191 -67q-45 -140 -84 -279t-58 -285q-5 -36 -5.5 -78t8 -85.5t27 -86t51.5 -79.5
q63 -72 169.5 -108t250.5 -36q142 0 256 22.5t194.5 60t125.5 85t50 98.5q2 24 -17 40t-52 28t-76.5 22t-91 23.5t-94.5 32t-87 46t-69.5 67t-40.5 95.5q-16 79 -7.5 157.5t36.5 152t74 139t105.5 118t130.5 90t149 53.5z" />
    <glyph glyph-name="uni06CC.init" unicode="&#x6cc;" horiz-adv-x="799" arabic-form="initial" 
d="M350 -345l-162 -162l-164 163l162 163zM728 -346l-162 -163l-164 164l162 162zM-149 98q0 42 28.5 70t69.5 28h111q35 -1 76 -0.5t83 4.5t82.5 11.5t74.5 21t60 33.5t39 48q20 43 11.5 122.5t-40.5 185.5q-11 32 -25.5 69.5t-28.5 69.5q-16 38 -33 75l178 88
q0 -1 9.5 -20.5t23.5 -52.5t31 -76.5t32 -92.5q93 -287 23 -448q-71 -161 -252 -212q-27 -8 -69 -12.5t-86 -6.5t-84 -2.5t-62 -0.5h-145h-9q-41 0 -69.5 28t-28.5 70z" />
    <glyph glyph-name="uni06CC.medi" unicode="&#x6cc;" horiz-adv-x="860" arabic-form="medial" 
d="M-105 98q0 42 28 70.5t70 28.5h76q84 0 161 10t135.5 37t92.5 73.5t31 119.5q-1 28 -4.5 63.5t-9 74.5t-13.5 79.5t-19 79.5l187 53q13 -46 23.5 -93.5t17.5 -93t10.5 -87.5t3.5 -76v-6q0 -37 6.5 -78t25 -76t51 -58t83.5 -23q42 0 71 -28t29 -70q0 -21 -8 -38.5
t-21.5 -31t-31 -21t-37.5 -7.5q-101 0 -167 36.5t-108 91.5q-36 -35 -93 -59.5t-125.5 -39.5t-143.5 -22t-147 -7h-76q-42 0 -70 28t-28 70zM328 -380l-162 -162l-164 163l162 163zM706 -381l-162 -163l-164 164l162 162z" />
    <glyph glyph-name="uni06CC.fina" unicode="&#x6cc;" horiz-adv-x="1686" arabic-form="final" 
d="M830 -652q-87 0 -180 8.5t-179 34.5t-158 73.5t-118 125.5q-108 158 -96 410q7 137 49 299t121 353l183 -74q-128 -314 -151.5 -535t57.5 -344q41 -59 101.5 -90.5t126 -45.5t130 -16t114.5 -2q29 0 82 4.5t115 15.5t126.5 29.5t117 45.5t85.5 64.5t33 85.5
q0 12 -11 28.5t-35.5 35.5t-63.5 40t-96 42q-35 12 -69.5 22.5t-64.5 18t-55 13.5t-41 9l-22 4l15 194l770 -1q41 0 70 -28t29 -70t-29 -70t-70 -28h-239q34 -28 55.5 -56.5t33.5 -55.5t16 -52t4 -46q-1 -85 -39 -151t-100 -115t-141 -82.5t-162.5 -54.5t-165.5 -30t-148 -9
z" />
    <glyph glyph-name="uni06D3" unicode="&#x6d3;" horiz-adv-x="1921" arabic-form="isolated" 
d="M817 761l190 -42q-1 -6 -9 -33.5t-24.5 -64t-43 -75t-65.5 -66.5q-26 -19 -63.5 -33.5t-89.5 -31.5q-51 -18 -110.5 -40t-111.5 -51q-69 -38 -102 -78q15 -11 43 -23t77 -23q38 -8 85.5 -14t106.5 -10t131.5 -6t160.5 -2q105 0 207.5 10t194 24.5t169.5 32t135 32.5
t89.5 25t33.5 10l61 -185q-2 0 -22 -6.5t-55.5 -16.5t-85.5 -23t-111 -26q-56 -12 -126 -24.5t-149.5 -23t-165.5 -17t-175 -6.5q-94 0 -171.5 2t-141 6t-116 11t-95.5 16q-106 24 -172 65q-79 49 -112 129l-1 69q25 71 78.5 123.5t120 90.5t137 65t130.5 48q14 5 30 10.5
t30.5 10.5t25.5 10t16 8q13 9 24 25.5t19.5 34.5t14.5 35t8 28zM699 1202q-12 3 -27 6q-13 2 -29.5 4.5t-35.5 2.5q-15 0 -30.5 -2.5t-31.5 -9.5v2q-32 -14 -51.5 -42.5t-19.5 -61.5q0 -17 8 -36l-1 1q14 -35 49.5 -58.5t78.5 -23.5q11 0 21 1t21 6q26 8 51 21t45 25
q23 14 43 29l59 -78q-39 -29 -98 -62t-144 -80l-227 -126l-48 87l179 100q-41 17 -72.5 49t-48.5 71q-14 34 -14 74q0 31 9.5 60.5t27 55t42 45.5t54.5 32q47 19 98 19q23 0 44 -3t38 -7q19 -4 38 -9z" />
    <glyph glyph-name="uni06D3.fina" unicode="&#x6d3;" horiz-adv-x="1239" arabic-form="final" 
d="M1245 196v-195q-1 0 -35 -2t-88.5 -5.5t-124 -9t-141 -12.5t-139.5 -15t-121 -17q-54 -9 -103.5 -27.5t-94.5 -41.5t-84 -48.5t-70 -49.5q163 -42 437 -60q37 -2 73.5 -3t71.5 -1q86 0 162.5 5t134 10.5t91 10.5t34.5 5l32 -192q-4 0 -40.5 -5.5t-97.5 -12t-141.5 -11.5
t-172.5 -5q-39 0 -78.5 1.5t-80.5 3.5q-127 8 -224.5 20.5t-169.5 27t-122 30t-82 29.5t-49.5 25.5t-24.5 18.5l-6 136q2 3 23 24.5t57.5 53t87 69.5t113.5 73.5t136.5 65t155.5 43.5q55 10 125.5 18t145 15t146 12t128.5 8.5t94 5.5t42 2zM600 640q-12 3 -27 6
q-13 2 -29.5 4.5t-35.5 2.5q-15 0 -30.5 -2.5t-31.5 -9.5v2q-32 -14 -51.5 -42.5t-19.5 -61.5q0 -17 8 -36l-1 1q14 -35 49.5 -58.5t78.5 -23.5q11 0 21 1t21 6q26 8 51 21t45 25q23 14 43 29l59 -78q-39 -29 -98 -62t-144 -80l-227 -126l-48 87l179 100q-41 17 -72.5 49
t-48.5 71q-14 34 -14 74q0 31 9.5 60.5t27 55t42 45.5t54.5 32q47 19 98 19q23 0 44 -3t38 -7q19 -4 38 -9z" />
    <glyph glyph-name="uni0626" unicode="&#x626;" horiz-adv-x="1723" arabic-form="isolated" 
d="M1371 832q69 14 132 10t111 -15t77.5 -23t32.5 -13l-87 -183l-19 7.5t-49.5 14t-71 9t-84.5 -6.5q-42 -4 -87.5 -26t-87.5 -57t-78 -79.5t-59.5 -92.5t-31.5 -97t7 -92q13 -37 45.5 -59t76.5 -37t95.5 -26t101.5 -25.5t95 -35.5t76.5 -56.5t45 -88t0.5 -129.5
q-18 -98 -88 -180t-186 -140q-110 -56 -249.5 -85t-303.5 -29q-189 0 -334.5 54.5t-238.5 158.5q-82 94 -115.5 218t-15.5 271q8 65 22 134.5t30.5 135.5t34 125.5t32 105.5t24.5 74t11 32l191 -67q-45 -140 -84 -279t-58 -285q-5 -36 -5.5 -78t8 -85.5t27 -86t51.5 -79.5
q63 -72 169.5 -108t250.5 -36q142 0 256 22.5t194.5 60t125.5 85t50 98.5q2 24 -17 40t-52 28t-76.5 22t-91 23.5t-94.5 32t-87 46t-69.5 67t-40.5 95.5q-16 79 -7.5 157.5t36.5 152t74 139t105.5 118t130.5 90t149 53.5zM692 1125q-12 3 -27 6q-13 2 -29.5 4.5t-35.5 2.5
q-15 0 -30.5 -2.5t-31.5 -9.5v2q-32 -14 -51.5 -42.5t-19.5 -61.5q0 -17 8 -36l-1 1q14 -35 49.5 -58.5t78.5 -23.5q11 0 21 1t21 6q26 8 51 21t45 25q23 14 43 29l59 -78q-39 -29 -98 -62t-144 -80l-227 -126l-48 87l179 100q-41 17 -72.5 49t-48.5 71q-14 34 -14 74
q0 31 9.5 60.5t27 55t42 45.5t54.5 32q47 19 98 19q23 0 44 -3t38 -7q19 -4 38 -9z" />
    <glyph glyph-name="uni0626.init" unicode="&#x626;" horiz-adv-x="711" arabic-form="initial" 
d="M-105 98q0 42 28.5 70t69.5 28h103q53 -2 102 0.5t90 14.5t72.5 36.5t51.5 66.5q20 43 11.5 122.5t-40.5 185.5q-11 32 -25.5 69.5t-28.5 69.5q-16 38 -33 75l178 88q0 -1 9.5 -20.5t23.5 -52.5t31 -76.5t32 -92.5q93 -287 23 -448q-71 -161 -252 -212
q-54 -16 -105.5 -19t-96.5 -3h-137h-9q-41 0 -69.5 28t-28.5 70zM487 1425q-12 3 -27 6q-13 2 -29.5 4.5t-35.5 2.5q-15 0 -30.5 -2.5t-31.5 -9.5v2q-32 -14 -51.5 -42.5t-19.5 -61.5q0 -17 8 -36l-1 1q14 -35 49.5 -58.5t78.5 -23.5q11 0 21 1t21 6q26 8 51 21t45 25
q23 14 43 29l59 -78q-39 -29 -98 -62t-144 -80l-227 -126l-48 87l179 100q-41 17 -72.5 49t-48.5 71q-14 34 -14 74q0 31 9.5 60.5t27 55t42 45.5t54.5 32q47 19 98 19q23 0 44 -3t38 -7q19 -4 38 -9z" />
    <glyph glyph-name="uni0626.medi" unicode="&#x626;" horiz-adv-x="715" arabic-form="medial" 
d="M-94 98q0 41 28 69.5t70 28.5h17q168 0 244 60.5t76 179.5q0 28 -3 64t-9 75t-14.5 79.5t-19.5 78.5l188 53q13 -45 23 -93t17 -93.5t10.5 -87.5t3.5 -76v-5q0 -37 7 -78t25.5 -76t51 -58t83.5 -23q20 0 38 -7.5t31.5 -21t21.5 -31.5t8 -38q0 -21 -8 -38.5t-21.5 -31
t-31 -21t-37.5 -7.5q-50 0 -91.5 9t-75 25.5t-60 39.5t-47.5 50q-63 -62 -163.5 -93t-246.5 -31h-17q-42 0 -70 28t-28 70zM475 1308q-12 3 -27 6q-13 2 -29.5 4.5t-35.5 2.5q-15 0 -30.5 -2.5t-31.5 -9.5v2q-32 -14 -51.5 -42.5t-19.5 -61.5q0 -17 8 -36l-1 1
q14 -35 49.5 -58.5t78.5 -23.5q11 0 21 1t21 6q26 8 51 21t45 25q23 14 43 29l59 -78q-39 -29 -98 -62t-144 -80l-227 -126l-48 87l179 100q-41 17 -72.5 49t-48.5 71q-14 34 -14 74q0 31 9.5 60.5t27 55t42 45.5t54.5 32q47 19 98 19q23 0 44 -3t38 -7q19 -4 38 -9z" />
    <glyph glyph-name="uni0626.fina" unicode="&#x626;" horiz-adv-x="1683" arabic-form="final" 
d="M830 -652q-87 0 -180 8.5t-179 34.5t-158 73.5t-118 125.5q-108 158 -96 410q7 137 49 299t121 353l183 -74q-128 -314 -151.5 -535t57.5 -344q41 -59 101.5 -90.5t126 -45.5t130 -16t114.5 -2q29 0 82 4.5t115 15.5t126.5 29.5t117 45.5t85.5 64.5t33 85.5
q0 12 -11 28.5t-35.5 35.5t-63.5 40t-96 42q-35 12 -69.5 22.5t-64.5 18t-55 13.5t-41 9l-22 4l15 194l770 -1q41 0 70 -28t29 -70t-29 -70t-70 -28h-239q34 -28 55.5 -56.5t33.5 -55.5t16 -52t4 -46q-1 -85 -39 -151t-100 -115t-141 -82.5t-162.5 -54.5t-165.5 -30t-148 -9
zM908 606q-12 3 -27 6q-13 2 -29.5 4.5t-35.5 2.5q-15 0 -30.5 -2.5t-31.5 -9.5v2q-32 -14 -51.5 -42.5t-19.5 -61.5q0 -17 8 -36l-1 1q14 -35 49.5 -58.5t78.5 -23.5q11 0 21 1t21 6q26 8 51 21t45 25q23 14 43 29l59 -78q-39 -29 -98 -62t-144 -80l-227 -126l-48 87
l179 100q-41 17 -72.5 49t-48.5 71q-14 34 -14 74q0 31 9.5 60.5t27 55t42 45.5t54.5 32q47 19 98 19q23 0 44 -3t38 -7q19 -4 38 -9z" />
    <glyph glyph-name="uni06C2" unicode="&#x6c2;" horiz-adv-x="993" 
d="M495 0q-5 0 -24.5 1t-48.5 5.5t-65.5 14t-73.5 27.5q-95 44 -144.5 120t-49.5 179q0 180 163 377q33 39 63.5 70t53.5 52q-30 27 -48 42t-18 16l126 153q1 -2 21.5 -19t52.5 -47t73 -70.5t84 -88.5q122 -139 182.5 -260.5t60.5 -224.5t-45.5 -179t-133.5 -119
q-32 -16 -65 -25.5t-63 -15t-56.5 -7t-44.5 -1.5zM507 704q-29 -26 -67.5 -66t-72.5 -88t-57.5 -100.5t-23.5 -102.5q0 -15 2.5 -31t11 -31.5t24.5 -30.5t43 -27q19 -9 39 -14.5t37 -8.5t31 -4t21 -1q9 0 25.5 0.5t36 3t40 8t39.5 14.5q37 20 53.5 48.5t16.5 73.5
q0 65 -50 156t-145 197q-1 1 -1.5 2t-2.5 2zM518 1550q-12 3 -27 6q-13 2 -29.5 4.5t-35.5 2.5q-15 0 -30.5 -2.5t-31.5 -9.5v2q-32 -14 -51.5 -42.5t-19.5 -61.5q0 -17 8 -36l-1 1q14 -35 49.5 -58.5t78.5 -23.5q11 0 21 1t21 6q26 8 51 21t45 25q23 14 43 29l59 -78
q-39 -29 -98 -62t-144 -80l-227 -126l-48 87l179 100q-41 17 -72.5 49t-48.5 71q-14 34 -14 74q0 31 9.5 60.5t27 55t42 45.5t54.5 32q47 19 98 19q23 0 44 -3t38 -7q19 -4 38 -9z" />
    <glyph glyph-name="uni06C1" unicode="&#x6c1;" horiz-adv-x="983" arabic-form="isolated" 
d="M485 0q-5 0 -24.5 1t-48.5 5.5t-65.5 14t-73.5 27.5q-95 44 -144.5 120t-49.5 179q0 180 163 377q33 39 63.5 70t53.5 52q-30 27 -48 42t-18 16l126 153q1 -2 21.5 -19t52.5 -47t73 -70.5t84 -88.5q122 -139 182.5 -260.5t60.5 -224.5t-45.5 -179t-133.5 -119
q-32 -16 -65 -25.5t-63 -15t-56.5 -7t-44.5 -1.5zM497 704q-29 -26 -67.5 -66t-72.5 -88t-57.5 -100.5t-23.5 -102.5q0 -15 2.5 -31t11 -31.5t24.5 -30.5t43 -27q19 -9 39 -14.5t37 -8.5t31 -4t21 -1q9 0 25.5 0.5t36 3t40 8t39.5 14.5q37 20 53.5 48.5t16.5 73.5
q0 65 -50 156t-145 197q-1 1 -1.5 2t-2.5 2z" />
    <glyph glyph-name="uni06C3" unicode="&#x6c3;" horiz-adv-x="1020" 
d="M522 0q-5 0 -24.5 1t-48.5 5.5t-65.5 14t-73.5 27.5q-95 44 -144.5 120t-49.5 179q0 180 163 377q33 39 63.5 70t53.5 52q-30 27 -48 42t-18 16l126 153q1 -2 21.5 -19t52.5 -47t73 -70.5t84 -88.5q122 -139 182.5 -260.5t60.5 -224.5t-45.5 -179t-133.5 -119
q-32 -16 -65 -25.5t-63 -15t-56.5 -7t-44.5 -1.5zM534 704q-29 -26 -67.5 -66t-72.5 -88t-57.5 -100.5t-23.5 -102.5q0 -15 2.5 -31t11 -31.5t24.5 -30.5t43 -27q19 -9 39 -14.5t37 -8.5t31 -4t21 -1q9 0 25.5 0.5t36 3t40 8t39.5 14.5q37 20 53.5 48.5t16.5 73.5
q0 65 -50 156t-145 197q-1 1 -1.5 2t-2.5 2zM420 1370l-162 -162l-164 163l162 163zM798 1369l-162 -163l-164 164l162 162z" />
    <glyph glyph-name="uni06BE.fina" unicode="&#x6be;" horiz-adv-x="1169" arabic-form="final" 
d="M746 705q-16 -12 -39.5 -35t-49.5 -58q-15 -21 -31 -48t-31 -60.5t-28 -72.5t-21 -84q-10 -67 -4 -139q16 4 31 6t31 7q154 42 198 164q15 39 20 74t3.5 65t-7.5 54.5t-14 42.5q-14 30 -29.5 51.5t-28.5 32.5zM36 14q0 20 5.5 34t17 25t30 20t45.5 20l211 84
q-8 81 2.5 157.5t34.5 152.5q17 50 38 92.5t43 77.5t44 63t41 49q15 17 36.5 38t47.5 40t55 32t58 15q34 1 64 -13.5t55 -35t42.5 -41.5t26.5 -32q64 -90 84 -200q22 -131 -28 -276q-45 -119 -142 -194q-41 -31 -88 -54t-104 -37q-17 -5 -34 -9t-34 -7q47 -118 137 -238
q12 69 46 137q57 122 168 202q56 42 113.5 61t120.5 19q42 0 70.5 -28.5t28.5 -69.5q0 -42 -28.5 -70t-70.5 -28h-8q-35 -2 -62.5 -10.5t-48.5 -26.5q-23 -18 -38.5 -34.5t-27.5 -33t-21 -33t-18 -34.5q-11 -23 -21.5 -57t-11.5 -75t13 -87t52 -92l-1 -2l25 -21l-125 -152
q-189 153 -311 310t-177 323l-9 25l-248 -84q-42 0 -70 28t-28 70z" />
    <glyph glyph-name="uni06BE.init" unicode="&#x6be;" horiz-adv-x="1388" arabic-form="initial" 
d="M742 202q122 -22 208.5 -4.5t135.5 59.5t61.5 101t-13.5 121t-89.5 119t-166.5 95q15 -63 13.5 -130t-18.5 -131.5t-50 -123t-81 -106.5zM-108 99q0 41 28.5 69t69.5 28h9q15 0 38 0.5t47 1.5t46.5 2t36.5 1q29 2 57.5 5t54.5 6q-51 48 -81.5 110t-41 129.5t-1.5 136.5
t37 130t75.5 110.5t113.5 78.5q-12 5 -26.5 11.5t-27 12t-22 9.5t-10.5 4l89 179q3 0 30 -10.5t72 -29t103.5 -43.5t124.5 -54q92 -42 174.5 -83.5t151.5 -84t121.5 -86t84.5 -89.5q54 -78 74 -161.5t6.5 -162t-61.5 -146.5t-130 -115q-27 -16 -64.5 -27.5t-78 -19t-81 -11
t-74.5 -3.5q-85 0 -169.5 16t-160.5 50q-45 -15 -104.5 -27t-126.5 -20t-137.5 -12t-139.5 -4h-9q-41 0 -69.5 28.5t-28.5 70.5zM562 792q-23 4 -48.5 -7.5t-50.5 -34t-47 -53.5t-38 -65.5t-24 -69t-4 -64.5q10 -76 54.5 -129.5t107.5 -90.5q57 25 96.5 70t60.5 99.5
t25 111.5t-9.5 105.5t-44.5 83.5t-78 44z" />
    <glyph glyph-name="uni06BE.medi" unicode="&#x6be;" horiz-adv-x="1003" arabic-form="medial" 
d="M512 705q-29 -3 -56.5 -29.5t-52 -68t-44.5 -93.5t-33 -106t-18 -106.5t0 -93.5q66 -8 119 16.5t91 69t58.5 101.5t21 115t-20 110t-65.5 85zM-99 98q0 41 28 69.5t70 28.5h112q-3 58 6.5 133t31.5 154t55.5 154.5t79 136t102.5 99t125 41.5q58 3 104.5 -29t80.5 -84.5
t55 -119t29 -134t2 -129t-27 -102.5q-23 -66 -63.5 -117t-93.5 -88t-115.5 -61t-129.5 -35q12 -29 31.5 -71t44.5 -84t54.5 -78.5t61.5 -55.5q-5 63 11 122.5t48 111.5t77 95.5t98 74.5t111 48.5t115 17.5q42 0 70.5 -28.5t28.5 -69.5q0 -42 -28.5 -70t-70.5 -28h-8
q-55 -3 -104.5 -28.5t-88 -66.5t-62.5 -93t-28 -107.5t15 -110t66 -100.5l-125 -152q-106 64 -189 140t-146 158t-107 167t-71 168l-9 25h-149q-42 0 -70 28t-28 70z" />
    <glyph glyph-name="fathatan_01" unicode="&#xfe70;" arabic-form="isolated" 
d="M426 1288l-422 -174v111l422 167v-104zM426 1547l-422 -174v111l422 167v-104z" />
    <glyph glyph-name="dammatan_01" unicode="&#xfe72;" arabic-form="isolated" 
d="M71 1108l-46 65q6 10 12 28.5t9.5 40t2.5 42t-8 33.5q-3 6 -8.5 10.5t-19.5 6.5q-11 0 -23 -4.5t-22 -10.5t-18 -12.5t-11 -9.5l-61 61q3 3 14.5 13t30 21.5t43 19.5t52.5 7q33 -2 58.5 -17.5t40.5 -43.5q18 -32 18.5 -71t-7.5 -75q50 15 106 37t97 51l-5 4
q-13 5 -26.5 12t-28.5 14q-41 20 -63 46.5t-30.5 53.5t-6 52.5t11.5 43.5q14 29 38.5 52.5t54 38t61.5 16.5t61 -12q59 -28 79 -97q7 -23 8.5 -48t-1 -49t-7 -46t-9.5 -39q8 -2 15 -4.5t13 -3.5l-25 -83q-8 2 -20.5 6t-26.5 8q-26 -25 -60 -46t-71 -38t-73.5 -30t-67.5 -22
t-52.5 -14.5t-28.5 -6.5zM344 1547q-21 0 -46 -17t-38 -41l-2 -8t0.5 -20t13.5 -26t37 -27q14 -8 28 -14t26 -13l24 -11q3 12 6.5 29t5 35.5t0.5 37t-6 34.5q-10 25 -32 38l-8 2t-9 1z" />
    <glyph glyph-name="kasratan_01" unicode="&#xfe74;" arabic-form="isolated" 
d="M428 -514l-422 -174v111l422 167v-104zM428 -255l-422 -174v111l422 167v-104z" />
    <glyph glyph-name="fatha_01" unicode="&#xfe76;" arabic-form="isolated" 
d="M407 1424l-422 -174v111l422 167v-104z" />
    <glyph glyph-name="damma_01" unicode="&#xfe78;" arabic-form="isolated" 
d="M-23 1077l-24 84q21 6 55 17.5t72.5 27t76.5 35t68 42.5l-9 4q-13 7 -26.5 13t-27.5 13q-41 20 -63 46.5t-30.5 53.5t-6 53t10.5 44q14 28 38.5 52t54 38t62 16t61.5 -12q59 -28 78 -95q14 -48 8.5 -98.5t-16.5 -85.5q8 -2 15 -4t13 -4l-25 -83q-8 2 -21 6.5t-27 9.5
q-25 -26 -57.5 -48.5t-68 -41t-70.5 -33t-64 -25t-50 -17t-27 -8.5zM234 1531q-11 0 -23 -4.5t-23.5 -13t-20.5 -19t-15 -22.5q-1 0 -3.5 -8t0 -20t13.5 -26t37 -27q14 -8 28 -14t27 -13l24 -11q3 13 6 30t4.5 35t0.5 36.5t-6 34.5q-5 14 -12.5 23.5t-19.5 14.5q-5 4 -17 4z
" />
    <glyph glyph-name="kasra_01" unicode="&#xfe7a;" arabic-form="isolated" 
d="M431 -357l-422 -174v111l422 167v-104z" />
    <glyph glyph-name="shadda_01" unicode="&#xfe7c;" arabic-form="isolated" 
d="M144 1137h-6q-30 1 -52 7.5t-38 16t-27 20.5t-17 22q-18 30 -20 64.5t4 65t15 54t14 31.5l77 -36q-6 -13 -12 -31t-9.5 -37t-3 -36.5t7.5 -29.5q6 -10 20.5 -16.5t31.5 -8t34 2.5t26 16q13 15 20 37t9.5 46t2 46t-0.5 36q21 3 38 5q14 2 26.5 3t12.5 -1q7 -63 17.5 -99
t22.5 -53.5t24 -21.5t21 -4q41 3 54 31.5t8 66t-23 76t-39 63.5l71 49q6 -9 23 -36t32 -62.5t23 -74.5t-3 -73t-28 -57.5t-37.5 -38.5t-42.5 -21.5t-42 -6.5q-23 0 -53.5 10t-55.5 42q-23 -32 -54 -49.5t-71 -17.5z" />
    <glyph glyph-name="sukun_01" unicode="&#xfe7e;" arabic-form="isolated" 
d="M246 1217q19 0 36.5 10.5t30.5 27t20.5 36.5t7.5 39t-7.5 38.5t-20.5 36t-30.5 27t-36.5 10.5q-20 0 -37 -10.5t-30.5 -27t-21 -36t-7.5 -38.5t7.5 -39t21 -36.5t30.5 -27t37 -10.5zM246 1549q40 0 78 -19t67 -53q27 -32 41.5 -70t14.5 -77q0 -38 -14.5 -76.5
t-41.5 -70.5q-29 -35 -67 -54t-78 -19q-41 0 -79 19t-67 54q-27 32 -41.5 70.5t-14.5 76.5q0 39 14.5 77t41.5 70q29 34 67 53t79 19z" />
    <glyph glyph-name="uni0651064C" unicode="&#xfc5e;" arabic-form="isolated" 
d="M136 1153h-6q-30 1 -52 7.5t-38 16t-27 20.5t-17 22q-18 30 -20 64.5t4 65t15 54t14 31.5l77 -36q-6 -13 -12 -31t-9.5 -37t-3 -36.5t7.5 -29.5q6 -10 20.5 -16.5t31.5 -8t34 2.5t26 16q13 15 20 37t9.5 46t2 46t-0.5 36q21 3 38 5q14 2 26.5 3t12.5 -1q7 -63 17.5 -99
t22.5 -53.5t24 -21.5t21 -4q41 3 54 31.5t8 66t-23 76t-39 63.5l71 49q6 -9 23 -36t32 -62.5t23 -74.5t-3 -73t-28 -57.5t-37.5 -38.5t-42.5 -21.5t-42 -6.5q-23 0 -53.5 10t-55.5 42q-23 -32 -54 -49.5t-71 -17.5zM18 1532l-46 65q6 10 12 28.5t9.5 40t2.5 42t-8 33.5
q-3 6 -8.5 10.5t-19.5 6.5q-11 0 -23 -4.5t-22 -10.5t-18 -12.5t-11 -9.5l-61 61q3 3 14.5 13t30 21.5t43 19.5t52.5 7q33 -2 58.5 -17.5t40.5 -43.5q18 -32 18.5 -71t-7.5 -75q50 15 106 37t97 51l-5 4q-13 5 -26.5 12t-28.5 14q-41 20 -63 46.5t-30.5 53.5t-6 52.5
t11.5 43.5q14 29 38.5 52.5t54 38t61.5 16.5t61 -12q59 -28 79 -97q7 -23 8.5 -48t-1 -49t-7 -46t-9.5 -39q8 -2 15 -4.5t13 -3.5l-25 -83q-8 2 -20.5 6t-26.5 8q-26 -25 -60 -46t-71 -38t-73.5 -30t-67.5 -22t-52.5 -14.5t-28.5 -6.5zM291 1971q-21 0 -46 -17t-38 -41
l-2 -8t0.5 -20t13.5 -26t37 -27q14 -8 28 -14t26 -13l24 -11q3 12 6.5 29t5 35.5t0.5 37t-6 34.5q-10 25 -32 38l-8 2t-9 1z" />
    <glyph glyph-name="uni0651064D" unicode="&#xfc5f;" arabic-form="isolated" 
d="M144 1137h-6q-30 1 -52 7.5t-38 16t-27 20.5t-17 22q-18 30 -20 64.5t4 65t15 54t14 31.5l77 -36q-6 -13 -12 -31t-9.5 -37t-3 -36.5t7.5 -29.5q6 -10 20.5 -16.5t31.5 -8t34 2.5t26 16q13 15 20 37t9.5 46t2 46t-0.5 36q21 3 38 5q14 2 26.5 3t12.5 -1q7 -63 17.5 -99
t22.5 -53.5t24 -21.5t21 -4q41 3 54 31.5t8 66t-23 76t-39 63.5l71 49q6 -9 23 -36t32 -62.5t23 -74.5t-3 -73t-28 -57.5t-37.5 -38.5t-42.5 -21.5t-42 -6.5q-23 0 -53.5 10t-55.5 42q-23 -32 -54 -49.5t-71 -17.5zM490 765l-422 -174v111l422 167v-104zM490 1024l-422 -174
v111l422 167v-104z" />
    <glyph glyph-name="uni0651064E" unicode="&#xfc60;" arabic-form="isolated" 
d="M112 1332h-6q-30 1 -52 7.5t-38 16t-27 20.5t-17 22q-18 30 -20 64.5t4 65t15 54t14 31.5l77 -36q-6 -13 -12 -31t-9.5 -37t-3 -36.5t7.5 -29.5q6 -10 20.5 -16.5t31.5 -8t34 2.5t26 16q13 15 20 37t9.5 46t2 46t-0.5 36q21 3 38 5q14 2 26.5 3t12.5 -1q7 -63 17.5 -99
t22.5 -53.5t24 -21.5t21 -4q41 3 54 31.5t8 66t-23 76t-39 63.5l71 49q6 -9 23 -36t32 -62.5t23 -74.5t-3 -73t-28 -57.5t-37.5 -38.5t-42.5 -21.5t-42 -6.5q-23 0 -53.5 10t-55.5 42q-23 -32 -54 -49.5t-71 -17.5zM389 1867l-422 -174v111l422 167v-104z" />
    <glyph glyph-name="uni0651064F" unicode="&#xfc61;" arabic-form="isolated" 
d="M132 1162h-6q-30 1 -52 7.5t-38 16t-27 20.5t-17 22q-18 30 -20 64.5t4 65t15 54t14 31.5l77 -36q-6 -13 -12 -31t-9.5 -37t-3 -36.5t7.5 -29.5q6 -10 20.5 -16.5t31.5 -8t34 2.5t26 16q13 15 20 37t9.5 46t2 46t-0.5 36q21 3 38 5q14 2 26.5 3t12.5 -1q7 -63 17.5 -99
t22.5 -53.5t24 -21.5t21 -4q41 3 54 31.5t8 66t-23 76t-39 63.5l71 49q6 -9 23 -36t32 -62.5t23 -74.5t-3 -73t-28 -57.5t-37.5 -38.5t-42.5 -21.5t-42 -6.5q-23 0 -53.5 10t-55.5 42q-23 -32 -54 -49.5t-71 -17.5zM-24 1573l-24 84q21 6 55 17.5t72.5 27t76.5 35t68 42.5
l-9 4q-13 7 -26.5 13t-27.5 13q-41 20 -63 46.5t-30.5 53.5t-6 53t10.5 44q14 28 38.5 52t54 38t62 16t61.5 -12q59 -28 78 -95q14 -48 8.5 -98.5t-16.5 -85.5q8 -2 15 -4t13 -4l-25 -83q-8 2 -21 6.5t-27 9.5q-25 -26 -57.5 -48.5t-68 -41t-70.5 -33t-64 -25t-50 -17
t-27 -8.5zM233 2027q-11 0 -23 -4.5t-23.5 -13t-20.5 -19t-15 -22.5q-1 0 -3.5 -8t0 -20t13.5 -26t37 -27q14 -8 28 -14t27 -13l24 -11q3 13 6 30t4.5 35t0.5 36.5t-6 34.5q-5 14 -12.5 23.5t-19.5 14.5q-5 4 -17 4z" />
    <glyph glyph-name="uni06510650" unicode="&#xfc62;" arabic-form="isolated" 
d="M139 1170h-6q-30 1 -52 7.5t-38 16t-27 20.5t-17 22q-18 30 -20 64.5t4 65t15 54t14 31.5l77 -36q-6 -13 -12 -31t-9.5 -37t-3 -36.5t7.5 -29.5q6 -10 20.5 -16.5t31.5 -8t34 2.5t26 16q13 15 20 37t9.5 46t2 46t-0.5 36q21 3 38 5q14 2 26.5 3t12.5 -1q7 -63 17.5 -99
t22.5 -53.5t24 -21.5t21 -4q41 3 54 31.5t8 66t-23 76t-39 63.5l71 49q6 -9 23 -36t32 -62.5t23 -74.5t-3 -73t-28 -57.5t-37.5 -38.5t-42.5 -21.5t-42 -6.5q-23 0 -53.5 10t-55.5 42q-23 -32 -54 -49.5t-71 -17.5zM476 1039l-422 -174v111l422 167v-104z" />
    <glyph glyph-name="uniFC63" unicode="&#xfc63;" arabic-form="isolated" 
d="M144 1137h-6q-30 1 -52 7.5t-38 16t-27 20.5t-17 22q-18 30 -20 64.5t4 65t15 54t14 31.5l77 -36q-6 -13 -12 -31t-9.5 -37t-3 -36.5t7.5 -29.5q6 -10 20.5 -16.5t31.5 -8t34 2.5t26 16q13 15 20 37t9.5 46t2 46t-0.5 36q21 3 38 5q14 2 26.5 3t12.5 -1q7 -63 17.5 -99
t22.5 -53.5t24 -21.5t21 -4q41 3 54 31.5t8 66t-23 76t-39 63.5l71 49q6 -9 23 -36t32 -62.5t23 -74.5t-3 -73t-28 -57.5t-37.5 -38.5t-42.5 -21.5t-42 -6.5q-23 0 -53.5 10t-55.5 42q-23 -32 -54 -49.5t-71 -17.5zM300 1534l-71 22q19 71 18 146t-18 141l72 22
q16 -60 18.5 -142.5t-19.5 -188.5z" />
    <glyph glyph-name="uni0672.fina" unicode="&#x672;" horiz-adv-x="662" 
d="M665 0q-110 0 -188.5 26t-132.5 80q-33 33 -50.5 71t-26 75t-9.5 70.5t-1 57.5v19q0 1 1 36.5t1.5 96t0.5 139.5t-1 167q0 86 -2 179t-6 180t-11 160.5t-16 120.5l196 36q9 -51 16 -125t11.5 -161t6.5 -181.5t2 -184.5q1 -88 1 -169v-144t-0.5 -104t-0.5 -49v-18
q-1 -44 3 -77.5t27 -55.5q22 -23 64.5 -35.5t105.5 -13.5h9q20 0 38 -7.5t31.5 -21t21.5 -31.5t8 -38q0 -42 -29 -70t-70 -28zM550 1914q-17 17 -37 31q-18 12 -42.5 22t-56.5 10q-27 0 -47 -9t-33.5 -24t-20.5 -35t-7 -41q0 -29 13 -52.5t34.5 -40t49.5 -25.5t59 -7
q27 2 52 5.5t45 6.5q23 4 42 8l12 -87q-26 -7 -59 -17.5t-76 -17.5t-98.5 -7.5t-127.5 12.5q-9 1 -21.5 5t-26 7.5t-26 6t-21.5 1.5q-28 -2 -46 -8.5t-31 -15.5t-23.5 -19.5t-23.5 -21.5l-48 65q12 11 27.5 26t34.5 29t43 25t53 14q12 2 34 -3t44 -12q26 -8 55 -18
q-33 31 -46.5 65t-13.5 76q0 40 15 76.5t41.5 63.5t62.5 43t79 16t78 -13t61 -29q30 -18 53 -42z" />
    <glyph glyph-name="uni0673.fina" unicode="&#x673;" horiz-adv-x="629" 
d="M626 0q-110 0 -188.5 26t-132.5 80q-33 33 -50.5 71t-26 75t-9.5 70.5t-1 57.5v19q0 1 1 36.5t1.5 96t0.5 139.5t-1 167q0 86 -2 179t-6 180t-11 160.5t-16 120.5l196 36q9 -51 16 -125t11.5 -161t6.5 -181.5t2 -184.5q1 -88 1 -169v-144t-0.5 -104t-0.5 -49v-18
q-1 -44 3 -77.5t27 -55.5q45 -47 170 -48h9q20 0 38 -8t31.5 -21.5t21.5 -31.5t8 -38q0 -42 -29 -70t-70 -28zM602 -271q-17 17 -37 31q-18 12 -42.5 22t-56.5 10q-27 0 -47 -9t-33.5 -24t-20.5 -35t-7 -41q0 -29 13 -52.5t34.5 -40t49.5 -25.5t59 -7q27 2 52 5.5t45 6.5
q23 4 42 8l12 -87q-26 -7 -59 -17.5t-76 -17.5t-98.5 -7.5t-127.5 12.5q-9 1 -21.5 5t-26 7.5t-26 6t-21.5 1.5q-28 -2 -46 -8.5t-31 -15.5t-23.5 -19.5t-23.5 -21.5l-48 65q12 11 27.5 26t34.5 29t43 25t53 14q12 2 34 -3t44 -12q26 -8 55 -18q-33 31 -46.5 65t-13.5 76
q0 40 15 76.5t41.5 63.5t62.5 43t79 16t78 -13t61 -29q30 -18 53 -42z" />
    <glyph glyph-name="uni0675.fina" unicode="&#x675;" horiz-adv-x="640" 
d="M645 0q-110 0 -188.5 26t-132.5 80q-33 33 -50.5 71t-26 75t-9.5 70.5t-1 57.5v19q0 1 1 36.5t1.5 96t0.5 139.5t-1 167q0 86 -2 179t-6 180t-11 160.5t-16 120.5l196 36q9 -51 16 -125t11.5 -161t6.5 -181.5t2 -184.5q1 -88 1 -169v-144t-0.5 -104t-0.5 -49v-18
q-1 -44 3 -77.5t27 -55.5q22 -23 64.5 -35.5t105.5 -13.5h9q20 0 38 -7.5t31.5 -21t21.5 -31.5t8 -38q0 -42 -29 -70t-70 -28zM383 2051q-12 3 -27 6q-13 2 -29.5 4.5t-35.5 2.5q-15 0 -30.5 -2.5t-31.5 -9.5v2q-32 -14 -51.5 -42.5t-19.5 -61.5q0 -17 8 -36l-1 1
q14 -35 49.5 -58.5t78.5 -23.5q11 0 21 1t21 6q26 8 51 21t45 25q23 14 43 29l59 -78q-39 -29 -98 -62t-144 -80l-227 -126l-48 87l179 100q-41 17 -72.5 49t-48.5 71q-14 34 -14 74q0 31 9.5 60.5t27 55t42 45.5t54.5 32q47 19 98 19q23 0 44 -3t38 -7q19 -4 38 -9z" />
    <glyph glyph-name="uni0676.fina" unicode="&#x676;" horiz-adv-x="1051" 
d="M124 -702l-46 193q154 31 276 86t209 124t137.5 146.5t61.5 152.5q-42 -1 -99.5 -0.5t-112.5 5.5q-217 14 -321 142q-46 58 -58.5 134t-1 155.5t42.5 154t73 128.5q50 63 110 95.5t124 32.5q142 0 261 -128q42 -47 76 -106t58 -126.5t38 -141t16 -149.5h75q21 0 39 -7.5
t31.5 -21t21.5 -31.5t8 -39q0 -20 -8 -37.5t-21.5 -31t-31.5 -21t-39 -7.5h-90q-30 -148 -108.5 -267.5t-190 -208.5t-248.5 -146t-282 -80zM519 650q-29 0 -55 -22.5t-46.5 -57.5t-34.5 -78.5t-19.5 -86t-0.5 -79t22 -57.5q15 -20 38 -32.5t48 -20t49.5 -11t42.5 -4.5
q63 -4 115.5 -3t91.5 4q-3 63 -15 120.5t-30.5 106.5t-42.5 88.5t-49 68.5q-10 10 -22.5 21.5t-27 21t-31 15.5t-33.5 6zM541 1392q-12 3 -27 6q-13 2 -29.5 4.5t-35.5 2.5q-15 0 -30.5 -2.5t-31.5 -9.5v2q-32 -14 -51.5 -42.5t-19.5 -61.5q0 -17 8 -36l-1 1
q14 -35 49.5 -58.5t78.5 -23.5q11 0 21 1t21 6q26 8 51 21t45 25q23 14 43 29l59 -78q-39 -29 -98 -62t-144 -80l-227 -126l-48 87l179 100q-41 17 -72.5 49t-48.5 71q-14 34 -14 74q0 31 9.5 60.5t27 55t42 45.5t54.5 32q47 19 98 19q23 0 44 -3t38 -7q19 -4 38 -9z" />
    <glyph glyph-name="uni0677.fina" unicode="&#x677;" horiz-adv-x="1078" 
d="M155 -702l-46 193q154 31 276 86t209 124t137.5 146.5t61.5 152.5q-42 -1 -99.5 -0.5t-112.5 5.5q-217 14 -321 142q-46 58 -58.5 134t-1 155.5t42.5 154t73 128.5q50 63 110 95.5t124 32.5q142 0 261 -128q42 -47 76 -106t58 -126.5t38 -141t16 -149.5h75q21 0 39 -7.5
t31.5 -21t21.5 -31.5t8 -39q0 -20 -8 -37.5t-21.5 -31t-31.5 -21t-39 -7.5h-90q-30 -148 -108.5 -267.5t-190 -208.5t-248.5 -146t-282 -80zM550 650q-29 0 -55 -22.5t-46.5 -57.5t-34.5 -78.5t-19.5 -86t-0.5 -79t22 -57.5q15 -20 38 -32.5t48 -20t49.5 -11t42.5 -4.5
q63 -4 115.5 -3t91.5 4q-3 63 -15 120.5t-30.5 106.5t-42.5 88.5t-49 68.5q-10 10 -22.5 21.5t-27 21t-31 15.5t-33.5 6zM293 1551l-24 84q21 6 55 17.5t72.5 27t76.5 35t68 42.5l-9 4q-13 7 -26.5 13t-27.5 13q-41 20 -63 46.5t-30.5 53.5t-6 53t10.5 44q14 28 38.5 52
t54 38t62 16t61.5 -12q59 -28 78 -95q14 -48 8.5 -98.5t-16.5 -85.5q8 -2 15 -4t13 -4l-25 -83q-8 2 -21 6.5t-27 9.5q-25 -26 -57.5 -48.5t-68 -41t-70.5 -33t-64 -25t-50 -17t-27 -8.5zM550 2005q-11 0 -23 -4.5t-23.5 -13t-20.5 -19t-15 -22.5q-1 0 -3.5 -8t0 -20
t13.5 -26t37 -27q14 -8 28 -14t27 -13l24 -11q3 13 6 30t4.5 35t0.5 36.5t-6 34.5q-5 14 -12.5 23.5t-19.5 14.5q-5 4 -17 4zM669 1435q-12 3 -27 6q-13 2 -29.5 4.5t-35.5 2.5q-15 0 -30.5 -2.5t-31.5 -9.5v2q-32 -14 -51.5 -42.5t-19.5 -61.5q0 -17 8 -36l-1 1
q14 -35 49.5 -58.5t78.5 -23.5q11 0 21 1t21 6q26 8 51 21t45 25q23 14 43 29l59 -78q-39 -29 -98 -62t-144 -80l-227 -126l-48 87l179 100q-41 17 -72.5 49t-48.5 71q-14 34 -14 74q0 31 9.5 60.5t27 55t42 45.5t54.5 32q47 19 98 19q23 0 44 -3t38 -7q19 -4 38 -9z" />
    <glyph glyph-name="uni0678.fina" unicode="&#x678;" horiz-adv-x="1685" 
d="M830 -652q-87 0 -180 8.5t-179 34.5t-158 73.5t-118 125.5q-108 158 -96 410q7 137 49 299t121 353l183 -74q-128 -314 -151.5 -535t57.5 -344q41 -59 101.5 -90.5t126 -45.5t130 -16t114.5 -2q29 0 82 4.5t115 15.5t126.5 29.5t117 45.5t85.5 64.5t33 85.5
q0 12 -11 28.5t-35.5 35.5t-63.5 40t-96 42q-35 12 -69.5 22.5t-64.5 18t-55 13.5t-41 9l-22 4l15 194l770 -1q41 0 70 -28t29 -70t-29 -70t-70 -28h-239q34 -28 55.5 -56.5t33.5 -55.5t16 -52t4 -46q-1 -85 -39 -151t-100 -115t-141 -82.5t-162.5 -54.5t-165.5 -30t-148 -9
zM906 811q-12 3 -27 6q-13 2 -29.5 4.5t-35.5 2.5q-15 0 -30.5 -2.5t-31.5 -9.5v2q-32 -14 -51.5 -42.5t-19.5 -61.5q0 -17 8 -36l-1 1q14 -35 49.5 -58.5t78.5 -23.5q11 0 21 1t21 6q26 8 51 21t45 25q23 14 43 29l59 -78q-39 -29 -98 -62t-144 -80l-227 -126l-48 87
l179 100q-41 17 -72.5 49t-48.5 71q-14 34 -14 74q0 31 9.5 60.5t27 55t42 45.5t54.5 32q47 19 98 19q23 0 44 -3t38 -7q19 -4 38 -9z" />
    <glyph glyph-name="uni067A.init" unicode="&#x67a;" horiz-adv-x="827" arabic-form="initial" 
d="M-98 98q0 42 28.5 70t69.5 28h111q35 -1 76 -0.5t83 4.5t82.5 11.5t74.5 21t60 33.5t39 48q20 43 11.5 122.5t-40.5 185.5q-11 32 -25.5 69.5t-28.5 69.5q-16 38 -33 75l178 88q0 -1 9.5 -20.5t23.5 -52.5t31 -76.5t32 -92.5q93 -287 23 -448q-71 -161 -252 -212
q-27 -8 -69 -12.5t-86 -6.5t-84 -2.5t-62 -0.5h-145h-9q-41 0 -69.5 28t-28.5 70zM504 1529l-163 -163l-164 164l163 163zM503 1140l-163 -163l-164 164l163 163z" />
    <glyph glyph-name="uni067A.medi" unicode="&#x67a;" horiz-adv-x="864" arabic-form="medial" 
d="M-105 98q0 42 28 70.5t70 28.5h76q84 0 161 10t135.5 37t92.5 73.5t31 119.5q-1 28 -4.5 63.5t-9 74.5t-13.5 79.5t-19 79.5l187 53q13 -46 23.5 -93.5t17.5 -93t10.5 -87.5t3.5 -76v-6q0 -37 6.5 -78t25 -76t51 -58t83.5 -23q42 0 71 -28t29 -70q0 -21 -8 -38.5
t-21.5 -31t-31 -21t-37.5 -7.5q-101 0 -167 36.5t-108 91.5q-36 -35 -93 -59.5t-125.5 -39.5t-143.5 -22t-147 -7h-76q-42 0 -70 28t-28 70zM535 1413l-163 -163l-164 164l163 163zM534 1024l-163 -163l-164 164l163 163z" />
    <glyph glyph-name="uni067A.fina" unicode="&#x67a;" horiz-adv-x="2241" arabic-form="final" 
d="M1843 164q-39 46 -62 109q-264 -276 -833 -276q-304 2 -503.5 72.5t-289.5 222.5q-29 49 -44.5 101t-20 103.5t0 101.5t16.5 95q12 47 24.5 85t23.5 65.5t19 43.5t10 19l173 -95q0 -1 -9 -20t-20 -50t-21.5 -72t-13 -86t5.5 -92t33 -89q60 -102 215.5 -153.5t400.5 -52.5
q221 0 376 38.5t258 122.5q46 36 79.5 79t57 89t39.5 93t29 92l190 -52q-5 -20 -11 -44.5t-12 -53.5q-12 -59 -11 -100q2 -43 13 -90t42 -84q71 -89 238 -89q42 0 70.5 -28.5t28.5 -70.5t-28.5 -70t-70.5 -28h-8q-260 3 -385 164zM1174 1192l-163 -163l-164 164l163 163z
M1173 803l-163 -163l-164 164l163 163z" />
    <glyph glyph-name="uni067B.init" unicode="&#x67b;" horiz-adv-x="684" arabic-form="initial" 
d="M-105 98q0 42 28.5 70t69.5 28h103q53 -2 102 0.5t90 14.5t72.5 36.5t51.5 66.5q20 43 11.5 122.5t-40.5 185.5q-11 32 -25.5 69.5t-28.5 69.5q-16 38 -33 75l178 88q0 -1 9.5 -20.5t23.5 -52.5t31 -76.5t32 -92.5q93 -287 23 -448q-71 -161 -252 -212
q-54 -16 -105.5 -19t-96.5 -3h-137h-9q-41 0 -69.5 28t-28.5 70zM467 -343l-163 -163l-164 164l163 163zM476 -742l-163 -163l-164 164l163 163z" />
    <glyph glyph-name="uni067B.medi" unicode="&#x67b;" horiz-adv-x="705" arabic-form="medial" 
d="M-94 98q0 41 28 69.5t70 28.5h17q168 0 244 60.5t76 179.5q0 28 -3 64t-9 75t-14.5 79.5t-19.5 78.5l188 53q13 -45 23 -93t17 -93.5t10.5 -87.5t3.5 -76v-5q0 -37 7 -78t25.5 -76t51 -58t83.5 -23q20 0 38 -7.5t31.5 -21t21.5 -31.5t8 -38q0 -21 -8 -38.5t-21.5 -31
t-31 -21t-37.5 -7.5q-50 0 -91.5 9t-75 25.5t-60 39.5t-47.5 50q-63 -62 -163.5 -93t-246.5 -31h-17q-42 0 -70 28t-28 70zM539 -330l-163 -163l-164 164l163 163zM548 -729l-163 -163l-164 164l163 163z" />
    <glyph glyph-name="uni067B.fina" unicode="&#x67b;" horiz-adv-x="2231" arabic-form="final" 
d="M1843 164q-39 46 -62 109q-264 -276 -833 -276q-304 2 -503.5 72.5t-289.5 222.5q-29 49 -44.5 101t-20 103.5t0 101.5t16.5 95q12 47 24.5 85t23.5 65.5t19 43.5t10 19l173 -95q0 -1 -9 -20t-20 -50t-21.5 -72t-13 -86t5.5 -92t33 -89q60 -102 215.5 -153.5t400.5 -52.5
q221 0 376 38.5t258 122.5q46 36 79.5 79t57 89t39.5 93t29 92l190 -52q-5 -20 -11 -44.5t-12 -53.5q-12 -59 -11 -100q2 -43 13 -90t42 -84q71 -89 238 -89q42 0 70.5 -28.5t28.5 -70.5t-28.5 -70t-70.5 -28h-8q-260 3 -385 164zM1169 -342l-163 -163l-164 164l163 163z
M1178 -741l-163 -163l-164 164l163 163z" />
    <glyph glyph-name="uni067C.init" unicode="&#x67c;" horiz-adv-x="799" 
d="M-105 98q0 42 28.5 70t69.5 28h103q53 -2 102 0.5t90 14.5t72.5 36.5t51.5 66.5q20 43 11.5 122.5t-40.5 185.5q-11 32 -25.5 69.5t-28.5 69.5q-16 38 -33 75l178 88q0 -1 9.5 -20.5t23.5 -52.5t31 -76.5t32 -92.5q93 -287 23 -448q-71 -161 -252 -212
q-54 -16 -105.5 -19t-96.5 -3h-137h-9q-41 0 -69.5 28t-28.5 70zM322 1568q19 0 36.5 10.5t30.5 27t20.5 36.5t7.5 39t-7.5 38.5t-20.5 36t-30.5 27t-36.5 10.5q-20 0 -37 -10.5t-30.5 -27t-21 -36t-7.5 -38.5t7.5 -39t21 -36.5t30.5 -27t37 -10.5zM322 1900q40 0 78 -19
t67 -53q27 -32 41.5 -70t14.5 -77q0 -38 -14.5 -76.5t-41.5 -70.5q-29 -35 -67 -54t-78 -19q-41 0 -79 19t-67 54q-27 32 -41.5 70.5t-14.5 76.5q0 39 14.5 77t41.5 70q29 34 67 53t79 19zM327 1221l-162 -162l-164 163l162 163zM705 1220l-162 -163l-164 164l162 162z" />
    <glyph glyph-name="uni067C.medi" unicode="&#x67c;" horiz-adv-x="854" 
d="M-105 98q0 42 28 70.5t70 28.5h76q84 0 161 10t135.5 37t92.5 73.5t31 119.5q-1 28 -4.5 63.5t-9 74.5t-13.5 79.5t-19 79.5l187 53q13 -46 23.5 -93.5t17.5 -93t10.5 -87.5t3.5 -76v-6q0 -37 6.5 -78t25 -76t51 -58t83.5 -23q42 0 71 -28t29 -70q0 -21 -8 -38.5
t-21.5 -31t-31 -21t-37.5 -7.5q-101 0 -167 36.5t-108 91.5q-36 -35 -93 -59.5t-125.5 -39.5t-143.5 -22t-147 -7h-76q-42 0 -70 28t-28 70zM317 1061l-162 -162l-164 163l162 163zM695 1060l-162 -163l-164 164l162 162zM235 1377q19 0 36.5 10.5t30.5 27t20.5 36.5t7.5 39
t-7.5 38.5t-20.5 36t-30.5 27t-36.5 10.5q-20 0 -37 -10.5t-30.5 -27t-21 -36t-7.5 -38.5t7.5 -39t21 -36.5t30.5 -27t37 -10.5zM235 1709q40 0 78 -19t67 -53q27 -32 41.5 -70t14.5 -77q0 -38 -14.5 -76.5t-41.5 -70.5q-29 -35 -67 -54t-78 -19q-41 0 -79 19t-67 54
q-27 32 -41.5 70.5t-14.5 76.5q0 39 14.5 77t41.5 70q29 34 67 53t79 19z" />
    <glyph glyph-name="uni067C.fina" unicode="&#x67c;" horiz-adv-x="2236" 
d="M1843 164q-39 46 -62 109q-264 -276 -833 -276q-304 2 -503.5 72.5t-289.5 222.5q-29 49 -44.5 101t-20 103.5t0 101.5t16.5 95q12 47 24.5 85t23.5 65.5t19 43.5t10 19l173 -95q0 -1 -9 -20t-20 -50t-21.5 -72t-13 -86t5.5 -92t33 -89q60 -102 215.5 -153.5t400.5 -52.5
q221 0 376 38.5t258 122.5q46 36 79.5 79t57 89t39.5 93t29 92l190 -52q-5 -20 -11 -44.5t-12 -53.5q-12 -59 -11 -100q2 -43 13 -90t42 -84q71 -89 238 -89q42 0 70.5 -28.5t28.5 -70.5t-28.5 -70t-70.5 -28h-8q-260 3 -385 164zM1037 965l-162 -162l-164 163l162 163z
M1415 964l-162 -163l-164 164l162 162zM935 1429q19 0 36.5 10.5t30.5 27t20.5 36.5t7.5 39t-7.5 38.5t-20.5 36t-30.5 27t-36.5 10.5q-20 0 -37 -10.5t-30.5 -27t-21 -36t-7.5 -38.5t7.5 -39t21 -36.5t30.5 -27t37 -10.5zM935 1761q40 0 78 -19t67 -53q27 -32 41.5 -70
t14.5 -77q0 -38 -14.5 -76.5t-41.5 -70.5q-29 -35 -67 -54t-78 -19q-41 0 -79 19t-67 54q-27 32 -41.5 70.5t-14.5 76.5q0 39 14.5 77t41.5 70q29 34 67 53t79 19z" />
    <glyph glyph-name="uni067D.init" unicode="&#x67d;" horiz-adv-x="827" 
d="M-98 98q0 42 28.5 70t69.5 28h111q35 -1 76 -0.5t83 4.5t82.5 11.5t74.5 21t60 33.5t39 48q20 43 11.5 122.5t-40.5 185.5q-11 32 -25.5 69.5t-28.5 69.5q-16 38 -33 75l178 88q0 -1 9.5 -20.5t23.5 -52.5t31 -76.5t32 -92.5q93 -287 23 -448q-71 -161 -252 -212
q-27 -8 -69 -12.5t-86 -6.5t-84 -2.5t-62 -0.5h-145h-9q-41 0 -69.5 28t-28.5 70zM332 1478l-162 -162l-164 164l162 162zM686 1477l-162 -163l-164 164l162 163zM518 1202l-162 -162l-164 164l162 162z" />
    <glyph glyph-name="uni067D.medi" unicode="&#x67d;" horiz-adv-x="864" 
d="M-105 98q0 42 28 70.5t70 28.5h76q84 0 161 10t135.5 37t92.5 73.5t31 119.5q-1 28 -4.5 63.5t-9 74.5t-13.5 79.5t-19 79.5l187 53q13 -46 23.5 -93.5t17.5 -93t10.5 -87.5t3.5 -76v-6q0 -37 6.5 -78t25 -76t51 -58t83.5 -23q42 0 71 -28t29 -70q0 -21 -8 -38.5
t-21.5 -31t-31 -21t-37.5 -7.5q-101 0 -167 36.5t-108 91.5q-36 -35 -93 -59.5t-125.5 -39.5t-143.5 -22t-147 -7h-76q-42 0 -70 28t-28 70zM327 1404l-162 -162l-164 164l162 162zM681 1403l-162 -163l-164 164l162 163zM513 1128l-162 -162l-164 164l162 162z" />
    <glyph glyph-name="uni067D.fina" unicode="&#x67d;" horiz-adv-x="2229" 
d="M1843 164q-39 46 -62 109q-264 -276 -833 -276q-304 2 -503.5 72.5t-289.5 222.5q-29 49 -44.5 101t-20 103.5t0 101.5t16.5 95q12 47 24.5 85t23.5 65.5t19 43.5t10 19l173 -95q0 -1 -9 -20t-20 -50t-21.5 -72t-13 -86t5.5 -92t33 -89q60 -102 215.5 -153.5t400.5 -52.5
q221 0 376 38.5t258 122.5q46 36 79.5 79t57 89t39.5 93t29 92l190 -52q-5 -20 -11 -44.5t-12 -53.5q-12 -59 -11 -100q2 -43 13 -90t42 -84q71 -89 238 -89q42 0 70.5 -28.5t28.5 -70.5t-28.5 -70t-70.5 -28h-8q-260 3 -385 164zM995 1084l-162 -162l-164 164l162 162z
M1349 1083l-162 -163l-164 164l162 163zM1181 808l-162 -162l-164 164l162 162z" />
    <glyph glyph-name="uni067F.init" unicode="&#x67f;" horiz-adv-x="827" arabic-form="initial" 
d="M-98 98q0 42 28.5 70t69.5 28h111q35 -1 76 -0.5t83 4.5t82.5 11.5t74.5 21t60 33.5t39 48q20 43 11.5 122.5t-40.5 185.5q-11 32 -25.5 69.5t-28.5 69.5q-16 38 -33 75l178 88q0 -1 9.5 -20.5t23.5 -52.5t31 -76.5t32 -92.5q93 -287 23 -448q-71 -161 -252 -212
q-27 -8 -69 -12.5t-86 -6.5t-84 -2.5t-62 -0.5h-145h-9q-41 0 -69.5 28t-28.5 70zM736 1210l-162 -163l-164 164l162 162zM376 1204l-162 -162l-164 163l162 163zM733 1611l-162 -163l-164 164l162 162zM373 1605l-162 -162l-164 163l162 163z" />
    <glyph glyph-name="uni067F.medi" unicode="&#x67f;" horiz-adv-x="854" arabic-form="medial" 
d="M-105 98q0 42 28 70.5t70 28.5h76q84 0 161 10t135.5 37t92.5 73.5t31 119.5q-1 28 -4.5 63.5t-9 74.5t-13.5 79.5t-19 79.5l187 53q13 -46 23.5 -93.5t17.5 -93t10.5 -87.5t3.5 -76v-6q0 -37 6.5 -78t25 -76t51 -58t83.5 -23q42 0 71 -28t29 -70q0 -21 -8 -38.5
t-21.5 -31t-31 -21t-37.5 -7.5q-101 0 -167 36.5t-108 91.5q-36 -35 -93 -59.5t-125.5 -39.5t-143.5 -22t-147 -7h-76q-42 0 -70 28t-28 70zM685 1091l-162 -163l-164 164l162 162zM325 1085l-162 -162l-164 163l162 163zM682 1492l-162 -163l-164 164l162 162zM322 1486
l-162 -162l-164 163l162 163z" />
    <glyph glyph-name="uni067F.fina" unicode="&#x67f;" horiz-adv-x="2248" arabic-form="final" 
d="M1843 164q-39 46 -62 109q-264 -276 -833 -276q-304 2 -503.5 72.5t-289.5 222.5q-29 49 -44.5 101t-20 103.5t0 101.5t16.5 95q12 47 24.5 85t23.5 65.5t19 43.5t10 19l173 -95q0 -1 -9 -20t-20 -50t-21.5 -72t-13 -86t5.5 -92t33 -89q60 -102 215.5 -153.5t400.5 -52.5
q221 0 376 38.5t258 122.5q46 36 79.5 79t57 89t39.5 93t29 92l190 -52q-5 -20 -11 -44.5t-12 -53.5q-12 -59 -11 -100q2 -43 13 -90t42 -84q71 -89 238 -89q42 0 70.5 -28.5t28.5 -70.5t-28.5 -70t-70.5 -28h-8q-260 3 -385 164zM1376 874l-162 -163l-164 164l162 162z
M1016 868l-162 -162l-164 163l162 163zM1373 1275l-162 -163l-164 164l162 162zM1013 1269l-162 -162l-164 163l162 163z" />
    <glyph glyph-name="uni0680.init" unicode="&#x680;" horiz-adv-x="827" arabic-form="initial" 
d="M-96 98q0 42 28.5 70t69.5 28h111q35 -1 76 -0.5t83 4.5t82.5 11.5t74.5 21t60 33.5t39 48q20 43 11.5 122.5t-40.5 185.5q-11 32 -25.5 69.5t-28.5 69.5q-16 38 -33 75l178 88q0 -1 9.5 -20.5t23.5 -52.5t31 -76.5t32 -92.5q93 -287 23 -448q-71 -161 -252 -212
q-27 -8 -69 -12.5t-86 -6.5t-84 -2.5t-62 -0.5h-145h-9q-41 0 -69.5 28t-28.5 70zM692 -686l-162 -163l-164 164l162 162zM332 -692l-162 -162l-164 163l162 163zM689 -285l-162 -163l-164 164l162 162zM329 -291l-162 -162l-164 163l162 163z" />
    <glyph glyph-name="uni0680.medi" unicode="&#x680;" horiz-adv-x="864" arabic-form="medial" 
d="M-105 98q0 42 28 70.5t70 28.5h76q84 0 161 10t135.5 37t92.5 73.5t31 119.5q-1 28 -4.5 63.5t-9 74.5t-13.5 79.5t-19 79.5l187 53q13 -46 23.5 -93.5t17.5 -93t10.5 -87.5t3.5 -76v-6q0 -37 6.5 -78t25 -76t51 -58t83.5 -23q42 0 71 -28t29 -70q0 -21 -8 -38.5
t-21.5 -31t-31 -21t-37.5 -7.5q-101 0 -167 36.5t-108 91.5q-36 -35 -93 -59.5t-125.5 -39.5t-143.5 -22t-147 -7h-76q-42 0 -70 28t-28 70zM699 -730l-162 -163l-164 164l162 162zM339 -736l-162 -162l-164 163l162 163zM696 -329l-162 -163l-164 164l162 162zM336 -335
l-162 -162l-164 163l162 163z" />
    <glyph glyph-name="uni0680.fina" unicode="&#x680;" horiz-adv-x="2238" arabic-form="final" 
d="M1843 164q-39 46 -62 109q-264 -276 -833 -276q-304 2 -503.5 72.5t-289.5 222.5q-29 49 -44.5 101t-20 103.5t0 101.5t16.5 95q12 47 24.5 85t23.5 65.5t19 43.5t10 19l173 -95q0 -1 -9 -20t-20 -50t-21.5 -72t-13 -86t5.5 -92t33 -89q60 -102 215.5 -153.5t400.5 -52.5
q221 0 376 38.5t258 122.5q46 36 79.5 79t57 89t39.5 93t29 92l190 -52q-5 -20 -11 -44.5t-12 -53.5q-12 -59 -11 -100q2 -43 13 -90t42 -84q71 -89 238 -89q42 0 70.5 -28.5t28.5 -70.5t-28.5 -70t-70.5 -28h-8q-260 3 -385 164zM1358 -724l-162 -163l-164 164l162 162z
M998 -730l-162 -162l-164 163l162 163zM1355 -323l-162 -163l-164 164l162 162zM995 -329l-162 -162l-164 163l162 163z" />
    <glyph glyph-name="uni0681.init" unicode="&#x681;" horiz-adv-x="1598" 
d="M-101 98q0 42 29 70t71 28h198q134 0 266.5 25.5t261.5 67.5t252 96t237 111q-68 24 -131.5 52t-124.5 57q-47 22 -91.5 42.5t-85.5 36.5t-78.5 25.5t-68.5 9.5q-42 0 -78.5 -18t-68 -45.5t-56.5 -59t-42.5 -59t-27 -46t-10.5 -19.5l-180 81q1 2 8.5 17.5t21.5 40t35 55
t48 62.5q77 94 165.5 141t184.5 47q48 0 98 -11t101 -29.5t103.5 -42.5t106.5 -49q59 -28 119.5 -55t121.5 -48.5t122 -34.5t123 -13l38 -190q-70 -29 -139.5 -62.5t-143.5 -70.5q-110 -55 -236.5 -110t-265 -99.5t-286.5 -72.5t-299 -28h-190h-8q-21 0 -39 7.5t-31.5 21
t-21.5 31.5t-8 38zM657 1457q-12 3 -27 6q-13 2 -29.5 4.5t-35.5 2.5q-15 0 -30.5 -2.5t-31.5 -9.5v2q-32 -14 -51.5 -42.5t-19.5 -61.5q0 -17 8 -36l-1 1q14 -35 49.5 -58.5t78.5 -23.5q11 0 21 1t21 6q26 8 51 21t45 25q23 14 43 29l59 -78q-39 -29 -98 -62t-144 -80
l-227 -126l-48 87l179 100q-41 17 -72.5 49t-48.5 71q-14 34 -14 74q0 31 9.5 60.5t27 55t42 45.5t54.5 32q47 19 98 19q23 0 44 -3t38 -7q19 -4 38 -9z" />
    <glyph glyph-name="uni0681.medi" unicode="&#x681;" horiz-adv-x="1680" 
d="M-99 97q0 20 7.5 38t21 31.5t31.5 21.5t39 8h183q134 0 257.5 25.5t239.5 66.5t226 93.5t218 105.5l18 9q-68 24 -131.5 53t-124.5 57q-46 22 -90.5 42t-86 35.5t-79 25t-69.5 9.5q-42 0 -79 -18t-68 -45t-56 -58.5t-42 -59t-26.5 -46l-9.5 -18.5l-181 82q0 1 7.5 16
t22 40t35 56t47.5 63q78 91 166.5 139t183.5 48q48 0 98 -11t101 -29.5t103.5 -42t106.5 -48.5q59 -29 119.5 -56t121.5 -49t122.5 -35t122.5 -13l39 -189q-45 -19 -90.5 -40.5t-91.5 -43.5q11 -38 35.5 -64.5t56.5 -45t67.5 -29t69.5 -16.5t63.5 -7.5t47.5 -1.5h6h8
q21 0 39 -8t31.5 -21.5t21 -31.5t7.5 -38q0 -42 -28.5 -69.5t-70.5 -27.5h-14q-99 0 -183 18.5t-150 53.5t-113.5 85.5t-72.5 114.5q-102 -51 -212 -100t-228 -87.5t-245.5 -62t-265.5 -23.5l-183 1q-42 0 -70.5 27.5t-28.5 69.5zM624 1459q-12 3 -27 6q-13 2 -29.5 4.5
t-35.5 2.5q-15 0 -30.5 -2.5t-31.5 -9.5v2q-32 -14 -51.5 -42.5t-19.5 -61.5q0 -17 8 -36l-1 1q14 -35 49.5 -58.5t78.5 -23.5q11 0 21 1t21 6q26 8 51 21t45 25q23 14 43 29l59 -78q-39 -29 -98 -62t-144 -80l-227 -126l-48 87l179 100q-41 17 -72.5 49t-48.5 71
q-14 34 -14 74q0 31 9.5 60.5t27 55t42 45.5t54.5 32q47 19 98 19q23 0 44 -3t38 -7q19 -4 38 -9z" />
    <glyph glyph-name="uni0681.fina" unicode="&#x681;" horiz-adv-x="1702" 
d="M912 -791q-142 0 -270 40.5t-228.5 113.5t-167 173t-86.5 218.5t13.5 252t132.5 271.5q120 140 300 224q123 57 254 89t257 47l-108 52q-105 53 -192 91.5t-145 46.5q-139 19 -251 -99q-33 -36 -53.5 -69t-29.5 -51l-5 -12l-184 76q2 4 10.5 22t24.5 44.5t39 58.5t54 65
q88 97 194.5 137t226.5 24q84 -11 180.5 -53.5t217.5 -102.5q109 -54 232 -111t268 -105l-38 -192q-2 0 -18.5 0.5t-46 1t-70 -0.5t-89.5 -4q-2 -11 -2.5 -30.5t2.5 -42.5t12 -48t27 -47q24 -29 54.5 -47t70 -28.5t89.5 -14t113 -3.5q20 0 38 -8t31.5 -21.5t21.5 -31.5
t8 -39q0 -41 -29 -68.5t-70 -27.5q-92 0 -166.5 10.5t-133.5 31.5t-104.5 52.5t-79.5 74.5q-36 48 -57 106.5t-24 125.5q-3 21 0 38q-112 -14 -227 -41t-220 -75q-24 -12 -56.5 -30.5t-68.5 -45t-71.5 -61t-65.5 -78t-50.5 -96t-25.5 -115.5q-6 -96 22 -175t81.5 -139
t127.5 -101.5t159 -63t177 -23t181.5 18t171.5 60t148 103.5l129 -152q-71 -63 -149 -104.5t-159.5 -66t-164 -35t-162.5 -10.5zM700 1566q-12 3 -27 6q-13 2 -29.5 4.5t-35.5 2.5q-15 0 -30.5 -2.5t-31.5 -9.5v2q-32 -14 -51.5 -42.5t-19.5 -61.5q0 -17 8 -36l-1 1
q14 -35 49.5 -58.5t78.5 -23.5q11 0 21 1t21 6q26 8 51 21t45 25q23 14 43 29l59 -78q-39 -29 -98 -62t-144 -80l-227 -126l-48 87l179 100q-41 17 -72.5 49t-48.5 71q-14 34 -14 74q0 31 9.5 60.5t27 55t42 45.5t54.5 32q47 19 98 19q23 0 44 -3t38 -7q19 -4 38 -9z" />
    <glyph glyph-name="uni0682.init" unicode="&#x682;" horiz-adv-x="1620" 
d="M-101 98q0 42 29 70t71 28h198q134 0 266.5 25.5t261.5 67.5t252 96t237 111q-68 24 -131.5 52t-124.5 57q-47 22 -91.5 42.5t-85.5 36.5t-78.5 25.5t-68.5 9.5q-42 0 -78.5 -18t-68 -45.5t-56.5 -59t-42.5 -59t-27 -46t-10.5 -19.5l-180 81q1 2 8.5 17.5t21.5 40t35 55
t48 62.5q77 94 165.5 141t184.5 47q48 0 98 -11t101 -29.5t103.5 -42.5t106.5 -49q59 -28 119.5 -55t121.5 -48.5t122 -34.5t123 -13l38 -190q-70 -29 -139.5 -62.5t-143.5 -70.5q-110 -55 -236.5 -110t-265 -99.5t-286.5 -72.5t-299 -28h-190h-8q-21 0 -39 7.5t-31.5 21
t-21.5 31.5t-8 38zM691 1592l-163 -163l-164 164l163 163zM690 1203l-163 -163l-164 164l163 163z" />
    <glyph glyph-name="uni0682.medi" unicode="&#x682;" horiz-adv-x="1658" 
d="M-99 97q0 20 7.5 38t21 31.5t31.5 21.5t39 8h183q134 0 257.5 25.5t239.5 66.5t226 93.5t218 105.5l18 9q-68 24 -131.5 53t-124.5 57q-46 22 -90.5 42t-86 35.5t-79 25t-69.5 9.5q-42 0 -79 -18t-68 -45t-56 -58.5t-42 -59t-26.5 -46l-9.5 -18.5l-181 82q0 1 7.5 16
t22 40t35 56t47.5 63q78 91 166.5 139t183.5 48q48 0 98 -11t101 -29.5t103.5 -42t106.5 -48.5q59 -29 119.5 -56t121.5 -49t122.5 -35t122.5 -13l39 -189q-45 -19 -90.5 -40.5t-91.5 -43.5q11 -38 35.5 -64.5t56.5 -45t67.5 -29t69.5 -16.5t63.5 -7.5t47.5 -1.5h6h8
q21 0 39 -8t31.5 -21.5t21 -31.5t7.5 -38q0 -42 -28.5 -69.5t-70.5 -27.5h-14q-99 0 -183 18.5t-150 53.5t-113.5 85.5t-72.5 114.5q-102 -51 -212 -100t-228 -87.5t-245.5 -62t-265.5 -23.5l-183 1q-42 0 -70.5 27.5t-28.5 69.5zM638 1595l-163 -163l-164 164l163 163z
M637 1206l-163 -163l-164 164l163 163z" />
    <glyph glyph-name="uni0682.fina" unicode="&#x682;" horiz-adv-x="1702" 
d="M912 -791q-142 0 -270 40.5t-228.5 113.5t-167 173t-86.5 218.5t13.5 252t132.5 271.5q120 140 300 224q123 57 254 89t257 47l-108 52q-105 53 -192 91.5t-145 46.5q-139 19 -251 -99q-33 -36 -53.5 -69t-29.5 -51l-5 -12l-184 76q2 4 10.5 22t24.5 44.5t39 58.5t54 65
q88 97 194.5 137t226.5 24q84 -11 180.5 -53.5t217.5 -102.5q109 -54 232 -111t268 -105l-38 -192q-2 0 -18.5 0.5t-46 1t-70 -0.5t-89.5 -4q-2 -11 -2.5 -30.5t2.5 -42.5t12 -48t27 -47q24 -29 54.5 -47t70 -28.5t89.5 -14t113 -3.5q20 0 38 -8t31.5 -21.5t21.5 -31.5
t8 -39q0 -41 -29 -68.5t-70 -27.5q-92 0 -166.5 10.5t-133.5 31.5t-104.5 52.5t-79.5 74.5q-36 48 -57 106.5t-24 125.5q-3 21 0 38q-112 -14 -227 -41t-220 -75q-24 -12 -56.5 -30.5t-68.5 -45t-71.5 -61t-65.5 -78t-50.5 -96t-25.5 -115.5q-6 -96 22 -175t81.5 -139
t127.5 -101.5t159 -63t177 -23t181.5 18t171.5 60t148 103.5l129 -152q-71 -63 -149 -104.5t-159.5 -66t-164 -35t-162.5 -10.5zM759 1753l-163 -163l-164 164l163 163zM758 1364l-163 -163l-164 164l163 163z" />
    <glyph glyph-name="uni0683.init" unicode="&#x683;" horiz-adv-x="1581" arabic-form="initial" 
d="M-101 98q0 42 29 70t71 28h198q134 0 266.5 25.5t261.5 67.5t252 96t237 111q-68 24 -131.5 52t-124.5 57q-47 22 -91.5 42.5t-85.5 36.5t-78.5 25.5t-68.5 9.5q-42 0 -78.5 -18t-68 -45.5t-56.5 -59t-42.5 -59t-27 -46t-10.5 -19.5l-180 81q1 2 8.5 17.5t21.5 40t35 55
t48 62.5q77 94 165.5 141t184.5 47q48 0 98 -11t101 -29.5t103.5 -42.5t106.5 -49q59 -28 119.5 -55t121.5 -48.5t122 -34.5t123 -13l38 -190q-70 -29 -139.5 -62.5t-143.5 -70.5q-110 -55 -236.5 -110t-265 -99.5t-286.5 -72.5t-299 -28h-190h-8q-21 0 -39 7.5t-31.5 21
t-21.5 31.5t-8 38zM617 -369l-162 -162l-164 163l162 163zM1011 -370l-162 -163l-164 164l162 162z" />
    <glyph glyph-name="uni0683.medi" unicode="&#x683;" horiz-adv-x="1658" arabic-form="medial" 
d="M-99 97q0 20 7.5 38t21 31.5t31.5 21.5t39 8h183q134 0 257.5 25.5t239.5 66.5t226 93.5t218 105.5l18 9q-68 24 -131.5 53t-124.5 57q-46 22 -90.5 42t-86 35.5t-79 25t-69.5 9.5q-42 0 -79 -18t-68 -45t-56 -58.5t-42 -59t-26.5 -46l-9.5 -18.5l-181 82q0 1 7.5 16
t22 40t35 56t47.5 63q78 91 166.5 139t183.5 48q48 0 98 -11t101 -29.5t103.5 -42t106.5 -48.5q59 -29 119.5 -56t121.5 -49t122.5 -35t122.5 -13l39 -189q-45 -19 -90.5 -40.5t-91.5 -43.5q11 -38 35.5 -64.5t56.5 -45t67.5 -29t69.5 -16.5t63.5 -7.5t47.5 -1.5h6h8
q21 0 39 -8t31.5 -21.5t21 -31.5t7.5 -38q0 -42 -28.5 -69.5t-70.5 -27.5h-14q-99 0 -183 18.5t-150 53.5t-113.5 85.5t-72.5 114.5q-102 -51 -212 -100t-228 -87.5t-245.5 -62t-265.5 -23.5l-183 1q-42 0 -70.5 27.5t-28.5 69.5zM729 -353l-162 -162l-164 163l162 163z
M1123 -354l-162 -163l-164 164l162 162z" />
    <glyph glyph-name="uni0683.fina" unicode="&#x683;" horiz-adv-x="1696" arabic-form="final" 
d="M912 -791q-142 0 -270 40.5t-228.5 113.5t-167 173t-86.5 218.5t13.5 252t132.5 271.5q120 140 300 224q123 57 254 89t257 47l-108 52q-105 53 -192 91.5t-145 46.5q-139 19 -251 -99q-33 -36 -53.5 -69t-29.5 -51l-5 -12l-184 76q2 4 10.5 22t24.5 44.5t39 58.5t54 65
q88 97 194.5 137t226.5 24q84 -11 180.5 -53.5t217.5 -102.5q109 -54 232 -111t268 -105l-38 -192q-2 0 -18.5 0.5t-46 1t-70 -0.5t-89.5 -4q-2 -11 -2.5 -30.5t2.5 -42.5t12 -48t27 -47q24 -29 54.5 -47t70 -28.5t89.5 -14t113 -3.5q20 0 38 -8t31.5 -21.5t21.5 -31.5
t8 -39q0 -41 -29 -68.5t-70 -27.5q-92 0 -166.5 10.5t-133.5 31.5t-104.5 52.5t-79.5 74.5q-36 48 -57 106.5t-24 125.5q-3 21 0 38q-112 -14 -227 -41t-220 -75q-24 -12 -56.5 -30.5t-68.5 -45t-71.5 -61t-65.5 -78t-50.5 -96t-25.5 -115.5q-6 -96 22 -175t81.5 -139
t127.5 -101.5t159 -63t177 -23t181.5 18t171.5 60t148 103.5l129 -152q-71 -63 -149 -104.5t-159.5 -66t-164 -35t-162.5 -10.5zM859 -105l-162 -162l-164 163l162 163zM1253 -106l-162 -163l-164 164l162 162z" />
    <glyph glyph-name="uni0684.init" unicode="&#x684;" horiz-adv-x="1581" arabic-form="initial" 
d="M-101 98q0 42 29 70t71 28h198q134 0 266.5 25.5t261.5 67.5t252 96t237 111q-68 24 -131.5 52t-124.5 57q-47 22 -91.5 42.5t-85.5 36.5t-78.5 25.5t-68.5 9.5q-42 0 -78.5 -18t-68 -45.5t-56.5 -59t-42.5 -59t-27 -46t-10.5 -19.5l-180 81q1 2 8.5 17.5t21.5 40t35 55
t48 62.5q77 94 165.5 141t184.5 47q48 0 98 -11t101 -29.5t103.5 -42.5t106.5 -49q59 -28 119.5 -55t121.5 -48.5t122 -34.5t123 -13l38 -190q-70 -29 -139.5 -62.5t-143.5 -70.5q-110 -55 -236.5 -110t-265 -99.5t-286.5 -72.5t-299 -28h-190h-8q-21 0 -39 7.5t-31.5 21
t-21.5 31.5t-8 38zM801 -295l-163 -163l-164 164l163 163zM810 -694l-163 -163l-164 164l163 163z" />
    <glyph glyph-name="uni0684.medi" unicode="&#x684;" horiz-adv-x="1663" arabic-form="medial" 
d="M-99 97q0 20 7.5 38t21 31.5t31.5 21.5t39 8h183q134 0 257.5 25.5t239.5 66.5t226 93.5t218 105.5l18 9q-68 24 -131.5 53t-124.5 57q-46 22 -90.5 42t-86 35.5t-79 25t-69.5 9.5q-42 0 -79 -18t-68 -45t-56 -58.5t-42 -59t-26.5 -46l-9.5 -18.5l-181 82q0 1 7.5 16
t22 40t35 56t47.5 63q78 91 166.5 139t183.5 48q48 0 98 -11t101 -29.5t103.5 -42t106.5 -48.5q59 -29 119.5 -56t121.5 -49t122.5 -35t122.5 -13l39 -189q-45 -19 -90.5 -40.5t-91.5 -43.5q11 -38 35.5 -64.5t56.5 -45t67.5 -29t69.5 -16.5t63.5 -7.5t47.5 -1.5h6h8
q21 0 39 -8t31.5 -21.5t21 -31.5t7.5 -38q0 -42 -28.5 -69.5t-70.5 -27.5h-14q-99 0 -183 18.5t-150 53.5t-113.5 85.5t-72.5 114.5q-102 -51 -212 -100t-228 -87.5t-245.5 -62t-265.5 -23.5l-183 1q-42 0 -70.5 27.5t-28.5 69.5zM871 -295l-163 -163l-164 164l163 163z
M880 -694l-163 -163l-164 164l163 163z" />
    <glyph glyph-name="uni0684.fina" unicode="&#x684;" horiz-adv-x="1738" arabic-form="final" 
d="M932 -791q-142 0 -270 40.5t-228.5 113.5t-167 173t-86.5 218.5t13.5 252t132.5 271.5q120 140 300 224q123 57 254 89t257 47l-108 52q-105 53 -192 91.5t-145 46.5q-139 19 -251 -99q-33 -36 -53.5 -69t-29.5 -51l-5 -12l-184 76q2 4 10.5 22t24.5 44.5t39 58.5t54 65
q88 97 194.5 137t226.5 24q84 -11 180.5 -53.5t217.5 -102.5q109 -54 232 -111t268 -105l-38 -192q-2 0 -18.5 0.5t-46 1t-70 -0.5t-89.5 -4q-2 -11 -2.5 -30.5t2.5 -42.5t12 -48t27 -47q24 -29 54.5 -47t70 -28.5t89.5 -14t113 -3.5q20 0 38 -8t31.5 -21.5t21.5 -31.5
t8 -39q0 -41 -29 -68.5t-70 -27.5q-92 0 -166.5 10.5t-133.5 31.5t-104.5 52.5t-79.5 74.5q-36 48 -57 106.5t-24 125.5q-3 21 0 38q-112 -14 -227 -41t-220 -75q-24 -12 -56.5 -30.5t-68.5 -45t-71.5 -61t-65.5 -78t-50.5 -96t-25.5 -115.5q-6 -96 22 -175t81.5 -139
t127.5 -101.5t159 -63t177 -23t181.5 18t171.5 60t148 103.5l129 -152q-71 -63 -149 -104.5t-159.5 -66t-164 -35t-162.5 -10.5zM1114 81l-163 -163l-164 164l163 163zM1123 -318l-163 -163l-164 164l163 163z" />
    <glyph glyph-name="uni0685.init" unicode="&#x685;" horiz-adv-x="1570" 
d="M-101 98q0 42 29 70t71 28h198q134 0 266.5 25.5t261.5 67.5t252 96t237 111q-68 24 -131.5 52t-124.5 57q-47 22 -91.5 42.5t-85.5 36.5t-78.5 25.5t-68.5 9.5q-42 0 -78.5 -18t-68 -45.5t-56.5 -59t-42.5 -59t-27 -46t-10.5 -19.5l-180 81q1 2 8.5 17.5t21.5 40t35 55
t48 62.5q77 94 165.5 141t184.5 47q48 0 98 -11t101 -29.5t103.5 -42.5t106.5 -49q59 -28 119.5 -55t121.5 -48.5t122 -34.5t123 -13l38 -190q-70 -29 -139.5 -62.5t-143.5 -70.5q-110 -55 -236.5 -110t-265 -99.5t-286.5 -72.5t-299 -28h-190h-8q-21 0 -39 7.5t-31.5 21
t-21.5 31.5t-8 38zM560 1200l162 162l164 -164l-162 -162zM154 1201l162 163l164 -164l-162 -163zM377 1491l148 148l149 -149l-148 -148z" />
    <glyph glyph-name="uni0685.medi" unicode="&#x685;" horiz-adv-x="1663" 
d="M-99 97q0 20 7.5 38t21 31.5t31.5 21.5t39 8h183q134 0 257.5 25.5t239.5 66.5t226 93.5t218 105.5l18 9q-68 24 -131.5 53t-124.5 57q-46 22 -90.5 42t-86 35.5t-79 25t-69.5 9.5q-42 0 -79 -18t-68 -45t-56 -58.5t-42 -59t-26.5 -46l-9.5 -18.5l-181 82q0 1 7.5 16
t22 40t35 56t47.5 63q78 91 166.5 139t183.5 48q48 0 98 -11t101 -29.5t103.5 -42t106.5 -48.5q59 -29 119.5 -56t121.5 -49t122.5 -35t122.5 -13l39 -189q-45 -19 -90.5 -40.5t-91.5 -43.5q11 -38 35.5 -64.5t56.5 -45t67.5 -29t69.5 -16.5t63.5 -7.5t47.5 -1.5h6h8
q21 0 39 -8t31.5 -21.5t21 -31.5t7.5 -38q0 -42 -28.5 -69.5t-70.5 -27.5h-14q-99 0 -183 18.5t-150 53.5t-113.5 85.5t-72.5 114.5q-102 -51 -212 -100t-228 -87.5t-245.5 -62t-265.5 -23.5l-183 1q-42 0 -70.5 27.5t-28.5 69.5zM560 1196l162 162l164 -164l-162 -162z
M154 1197l162 163l164 -164l-162 -163zM377 1487l148 148l149 -149l-148 -148z" />
    <glyph glyph-name="uni0685.fina" unicode="&#x685;" horiz-adv-x="1691" 
d="M912 -791q-142 0 -270 40.5t-228.5 113.5t-167 173t-86.5 218.5t13.5 252t132.5 271.5q120 140 300 224q123 57 254 89t257 47l-108 52q-105 53 -192 91.5t-145 46.5q-139 19 -251 -99q-33 -36 -53.5 -69t-29.5 -51l-5 -12l-184 76q2 4 10.5 22t24.5 44.5t39 58.5t54 65
q88 97 194.5 137t226.5 24q84 -11 180.5 -53.5t217.5 -102.5q109 -54 232 -111t268 -105l-38 -192q-2 0 -18.5 0.5t-46 1t-70 -0.5t-89.5 -4q-2 -11 -2.5 -30.5t2.5 -42.5t12 -48t27 -47q24 -29 54.5 -47t70 -28.5t89.5 -14t113 -3.5q20 0 38 -8t31.5 -21.5t21.5 -31.5
t8 -39q0 -41 -29 -68.5t-70 -27.5q-92 0 -166.5 10.5t-133.5 31.5t-104.5 52.5t-79.5 74.5q-36 48 -57 106.5t-24 125.5q-3 21 0 38q-112 -14 -227 -41t-220 -75q-24 -12 -56.5 -30.5t-68.5 -45t-71.5 -61t-65.5 -78t-50.5 -96t-25.5 -115.5q-6 -96 22 -175t81.5 -139
t127.5 -101.5t159 -63t177 -23t181.5 18t171.5 60t148 103.5l129 -152q-71 -63 -149 -104.5t-159.5 -66t-164 -35t-162.5 -10.5zM645 1352l162 162l164 -164l-162 -162zM239 1353l162 163l164 -164l-162 -163zM462 1643l148 148l149 -149l-148 -148z" />
    <glyph glyph-name="uni0687.init" unicode="&#x687;" horiz-adv-x="1565" arabic-form="initial" 
d="M-101 98q0 42 29 70t71 28h198q134 0 266.5 25.5t261.5 67.5t252 96t237 111q-68 24 -131.5 52t-124.5 57q-47 22 -91.5 42.5t-85.5 36.5t-78.5 25.5t-68.5 9.5q-42 0 -78.5 -18t-68 -45.5t-56.5 -59t-42.5 -59t-27 -46t-10.5 -19.5l-180 81q1 2 8.5 17.5t21.5 40t35 55
t48 62.5q77 94 165.5 141t184.5 47q48 0 98 -11t101 -29.5t103.5 -42.5t106.5 -49q59 -28 119.5 -55t121.5 -48.5t122 -34.5t123 -13l38 -190q-70 -29 -139.5 -62.5t-143.5 -70.5q-110 -55 -236.5 -110t-265 -99.5t-286.5 -72.5t-299 -28h-190h-8q-21 0 -39 7.5t-31.5 21
t-21.5 31.5t-8 38zM971 -674l-162 -163l-164 164l162 162zM611 -680l-162 -162l-164 163l162 163zM968 -273l-162 -163l-164 164l162 162zM608 -279l-162 -162l-164 163l162 163z" />
    <glyph glyph-name="uni0687.medi" unicode="&#x687;" horiz-adv-x="1658" arabic-form="medial" 
d="M-99 97q0 20 7.5 38t21 31.5t31.5 21.5t39 8h183q134 0 257.5 25.5t239.5 66.5t226 93.5t218 105.5l18 9q-68 24 -131.5 53t-124.5 57q-46 22 -90.5 42t-86 35.5t-79 25t-69.5 9.5q-42 0 -79 -18t-68 -45t-56 -58.5t-42 -59t-26.5 -46l-9.5 -18.5l-181 82q0 1 7.5 16
t22 40t35 56t47.5 63q78 91 166.5 139t183.5 48q48 0 98 -11t101 -29.5t103.5 -42t106.5 -48.5q59 -29 119.5 -56t121.5 -49t122.5 -35t122.5 -13l39 -189q-45 -19 -90.5 -40.5t-91.5 -43.5q11 -38 35.5 -64.5t56.5 -45t67.5 -29t69.5 -16.5t63.5 -7.5t47.5 -1.5h6h8
q21 0 39 -8t31.5 -21.5t21 -31.5t7.5 -38q0 -42 -28.5 -69.5t-70.5 -27.5h-14q-99 0 -183 18.5t-150 53.5t-113.5 85.5t-72.5 114.5q-102 -51 -212 -100t-228 -87.5t-245.5 -62t-265.5 -23.5l-183 1q-42 0 -70.5 27.5t-28.5 69.5zM956 -649l-162 -163l-164 164l162 162z
M596 -655l-162 -162l-164 163l162 163zM953 -248l-162 -163l-164 164l162 162zM593 -254l-162 -162l-164 163l162 163z" />
    <glyph glyph-name="uni0687.fina" unicode="&#x687;" horiz-adv-x="1722" arabic-form="final" 
d="M932 -791q-142 0 -270 40.5t-228.5 113.5t-167 173t-86.5 218.5t13.5 252t132.5 271.5q120 140 300 224q123 57 254 89t257 47l-108 52q-105 53 -192 91.5t-145 46.5q-139 19 -251 -99q-33 -36 -53.5 -69t-29.5 -51l-5 -12l-184 76q2 4 10.5 22t24.5 44.5t39 58.5t54 65
q88 97 194.5 137t226.5 24q84 -11 180.5 -53.5t217.5 -102.5q109 -54 232 -111t268 -105l-38 -192q-2 0 -18.5 0.5t-46 1t-70 -0.5t-89.5 -4q-2 -11 -2.5 -30.5t2.5 -42.5t12 -48t27 -47q24 -29 54.5 -47t70 -28.5t89.5 -14t113 -3.5q20 0 38 -8t31.5 -21.5t21.5 -31.5
t8 -39q0 -41 -29 -68.5t-70 -27.5q-92 0 -166.5 10.5t-133.5 31.5t-104.5 52.5t-79.5 74.5q-36 48 -57 106.5t-24 125.5q-3 21 0 38q-112 -14 -227 -41t-220 -75q-24 -12 -56.5 -30.5t-68.5 -45t-71.5 -61t-65.5 -78t-50.5 -96t-25.5 -115.5q-6 -96 22 -175t81.5 -139
t127.5 -101.5t159 -63t177 -23t181.5 18t171.5 60t148 103.5l129 -152q-71 -63 -149 -104.5t-159.5 -66t-164 -35t-162.5 -10.5zM1274 -312l-162 -163l-164 164l162 162zM914 -318l-162 -162l-164 163l162 163zM1271 89l-162 -163l-164 164l162 162zM911 83l-162 -162
l-164 163l162 163z" />
    <glyph glyph-name="uni0689.fina" unicode="&#x689;" horiz-adv-x="1242" 
d="M530 0q-117 0 -218.5 49t-185.5 136l113 159q121 -111 235.5 -135t222.5 19q51 20 83.5 43.5t49.5 40.5l-316 760l182 76q32 -78 77 -187q38 -94 95 -231.5t134 -320.5q20 -48 35.5 -87.5t39.5 -67t64 -43t108 -15.5q41 0 70 -28t29 -70t-29 -70t-70 -28
q-65 0 -115.5 10.5t-89 28.5t-67.5 42.5t-50 51.5q-30 -22 -68.5 -46t-88.5 -44q-28 -11 -54.5 -19t-55 -13.5t-60.5 -8t-70 -2.5zM395 1505q19 0 36.5 10.5t30.5 27t20.5 36.5t7.5 39t-7.5 38.5t-20.5 36t-30.5 27t-36.5 10.5q-20 0 -37 -10.5t-30.5 -27t-21 -36
t-7.5 -38.5t7.5 -39t21 -36.5t30.5 -27t37 -10.5zM395 1837q40 0 78 -19t67 -53q27 -32 41.5 -70t14.5 -77q0 -38 -14.5 -76.5t-41.5 -70.5q-29 -35 -67 -54t-78 -19q-41 0 -79 19t-67 54q-27 32 -41.5 70.5t-14.5 76.5q0 39 14.5 77t41.5 70q29 34 67 53t79 19z" />
    <glyph glyph-name="uni068A.fina" unicode="&#x68a;" horiz-adv-x="1253" 
d="M530 0q-117 0 -218.5 49t-185.5 136l113 159q121 -111 235.5 -135t222.5 19q51 20 83.5 43.5t49.5 40.5l-316 760l182 76q32 -78 77 -187q38 -94 95 -231.5t134 -320.5q20 -48 35.5 -87.5t39.5 -67t64 -43t108 -15.5q41 0 70 -28t29 -70t-29 -70t-70 -28
q-65 0 -115.5 10.5t-89 28.5t-67.5 42.5t-50 51.5q-30 -22 -68.5 -46t-88.5 -44q-28 -11 -54.5 -19t-55 -13.5t-60.5 -8t-70 -2.5zM707 -358l-163 -163l-164 164l163 163z" />
    <glyph glyph-name="uni068B.fina" unicode="&#x68b;" horiz-adv-x="1258" 
d="M530 0q-117 0 -218.5 49t-185.5 136l113 159q121 -111 235.5 -135t222.5 19q51 20 83.5 43.5t49.5 40.5l-316 760l182 76q32 -78 77 -187q38 -94 95 -231.5t134 -320.5q20 -48 35.5 -87.5t39.5 -67t64 -43t108 -15.5q41 0 70 -28t29 -70t-29 -70t-70 -28
q-65 0 -115.5 10.5t-89 28.5t-67.5 42.5t-50 51.5q-30 -22 -68.5 -46t-88.5 -44q-28 -11 -54.5 -19t-55 -13.5t-60.5 -8t-70 -2.5zM707 -358l-163 -163l-164 164l163 163zM510 1304q-15 0 -28.5 0.5t-25.5 1.5h-3q-67 3 -133.5 17.5t-138.5 42.5l32 79q29 -11 56 -19.5
t54 -15.5q9 13 22.5 31t30.5 41l3 4q6 37 8.5 66t3 57.5t-1.5 60.5t-5 75q-4 46 -7.5 85.5t-7.5 68.5q-4 34 -8 62l84 16l3 -24t6.5 -57.5t7.5 -71t6 -64.5q3 -36 4 -52t2 -28.5t1 -31t1 -58.5q103 97 197 112q31 5 66 -1.5t64 -23.5t48.5 -45t21.5 -65q2 -23 -3 -46
t-14 -43t-20.5 -37t-23.5 -29l-1 -2q-38 -35 -77.5 -55.5t-78.5 -32t-75.5 -15t-69.5 -3.5zM417 1394q21 -3 40 -3h2q31 -1 67 -1t74 7t76.5 24t75.5 50q27 24 33.5 52.5t-3.5 51t-34.5 36t-60.5 7.5q-44 -7 -96 -43t-109 -100q-11 -12 -20 -23l-18 -22z" />
    <glyph glyph-name="uni068C.fina" unicode="&#x68c;" horiz-adv-x="1253" arabic-form="final" 
d="M530 0q-117 0 -218.5 49t-185.5 136l113 159q121 -111 235.5 -135t222.5 19q51 20 83.5 43.5t49.5 40.5l-316 760l182 76q32 -78 77 -187q38 -94 95 -231.5t134 -320.5q20 -48 35.5 -87.5t39.5 -67t64 -43t108 -15.5q41 0 70 -28t29 -70t-29 -70t-70 -28
q-65 0 -115.5 10.5t-89 28.5t-67.5 42.5t-50 51.5q-30 -22 -68.5 -46t-88.5 -44q-28 -11 -54.5 -19t-55 -13.5t-60.5 -8t-70 -2.5zM619 1425l-162 -162l-164 163l162 163zM997 1424l-162 -163l-164 164l162 162z" />
    <glyph glyph-name="uni068D.fina" unicode="&#x68d;" horiz-adv-x="1247" arabic-form="final" 
d="M530 0q-117 0 -218.5 49t-185.5 136l113 159q121 -111 235.5 -135t222.5 19q51 20 83.5 43.5t49.5 40.5l-316 760l182 76q32 -78 77 -187q38 -94 95 -231.5t134 -320.5q20 -48 35.5 -87.5t39.5 -67t64 -43t108 -15.5q41 0 70 -28t29 -70t-29 -70t-70 -28
q-65 0 -115.5 10.5t-89 28.5t-67.5 42.5t-50 51.5q-30 -22 -68.5 -46t-88.5 -44q-28 -11 -54.5 -19t-55 -13.5t-60.5 -8t-70 -2.5zM596 -367l-162 -162l-164 163l162 163zM990 -368l-162 -163l-164 164l162 162z" />
    <glyph glyph-name="uni068E.fina" unicode="&#x68e;" horiz-adv-x="1258" arabic-form="final" 
d="M530 0q-117 0 -218.5 49t-185.5 136l113 159q121 -111 235.5 -135t222.5 19q51 20 83.5 43.5t49.5 40.5l-316 760l182 76q32 -78 77 -187q38 -94 95 -231.5t134 -320.5q20 -48 35.5 -87.5t39.5 -67t64 -43t108 -15.5q41 0 70 -28t29 -70t-29 -70t-70 -28
q-65 0 -115.5 10.5t-89 28.5t-67.5 42.5t-50 51.5q-30 -22 -68.5 -46t-88.5 -44q-28 -11 -54.5 -19t-55 -13.5t-60.5 -8t-70 -2.5zM715 1425l162 162l164 -164l-162 -162zM309 1426l162 163l164 -164l-162 -163zM532 1716l148 148l149 -149l-148 -148z" />
    <glyph glyph-name="uni068F.fina" unicode="&#x68f;" horiz-adv-x="1264" 
d="M530 0q-117 0 -218.5 49t-185.5 136l113 159q121 -111 235.5 -135t222.5 19q51 20 83.5 43.5t49.5 40.5l-316 760l182 76q32 -78 77 -187q38 -94 95 -231.5t134 -320.5q20 -48 35.5 -87.5t39.5 -67t64 -43t108 -15.5q41 0 70 -28t29 -70t-29 -70t-70 -28
q-65 0 -115.5 10.5t-89 28.5t-67.5 42.5t-50 51.5q-30 -22 -68.5 -46t-88.5 -44q-28 -11 -54.5 -19t-55 -13.5t-60.5 -8t-70 -2.5zM556 1680l-162 -162l-164 164l162 162zM910 1679l-162 -163l-164 164l162 163zM742 1404l-162 -162l-164 164l162 162z" />
    <glyph glyph-name="uni0690.fina" unicode="&#x690;" horiz-adv-x="1253" 
d="M530 0q-117 0 -218.5 49t-185.5 136l113 159q121 -111 235.5 -135t222.5 19q51 20 83.5 43.5t49.5 40.5l-316 760l182 76q32 -78 77 -187q38 -94 95 -231.5t134 -320.5q20 -48 35.5 -87.5t39.5 -67t64 -43t108 -15.5q41 0 70 -28t29 -70t-29 -70t-70 -28
q-65 0 -115.5 10.5t-89 28.5t-67.5 42.5t-50 51.5q-30 -22 -68.5 -46t-88.5 -44q-28 -11 -54.5 -19t-55 -13.5t-60.5 -8t-70 -2.5zM979 1404l-162 -163l-164 164l162 162zM619 1398l-162 -162l-164 163l162 163zM976 1805l-162 -163l-164 164l162 162zM616 1799l-162 -162
l-164 163l162 163z" />
    <glyph glyph-name="uni0692.fina" unicode="&#x692;" horiz-adv-x="821" 
d="M625 73v-4q0 -87 -25.5 -169t-71 -158t-108 -144.5t-136 -129.5t-155 -112.5t-165.5 -93.5l-86 177q72 37 143 81t134 95t116 108t89.5 119t54.5 129t11 137v-2q-7 57 -21.5 122.5t-32 128.5t-34 118.5t-28.5 92.5l188 58q38 -116 74.5 -197.5t75 -133t80.5 -75.5t92 -24
h5q21 0 39 -8t31.5 -21.5t21 -31.5t7.5 -38q0 -42 -28.5 -69.5t-70.5 -27.5h-1q-14 0 -36.5 1t-50 8t-56.5 22t-56 42zM461 750l-105 6q-18 56 -40.5 114t-48 108.5t-52 89.5t-52.5 57l64 92q74 -51 146 -197q11 -22 20.5 -43.5t17.5 -42.5q5 12 8.5 24.5t7.5 23.5
q15 45 29.5 86.5t31.5 78t37 68t47 56.5l77 -82q-19 -18 -34.5 -43.5t-29 -56.5t-26 -67t-25.5 -75q-15 -46 -32.5 -96t-40.5 -101z" />
    </font>
</defs>
</svg>
